conanlcg
超級版主

[更 早] [歐美] [劇情] [WEB-1080P] 地獄市長/誤入歧途 The.Mayor.of.Hell.1933.1080p.AMZN.WEBRip.DD1.0.x264-SbR 8.21GB

-->

帖子完整標題:地獄市長/誤入歧途 The.Mayor.of.Hell.1933.1080p.AMZN.WEBRip.DD1.0.x264-SbR 8.21GB




◎譯  名 地獄市長 / 誤入歧途
◎片  名 The Mayor of Hell
◎年  代 1933
◎產  地 美國
◎類  別 劇情 / 愛情 / 犯罪
◎語  言 英語 / 意大利語 / 依地語
◎上映日期 1933-06-24
◎IMDb評分 7.0/10 from 1236 users
◎IMDb鏈接 https://www.imdb.com/title/tt0024314
◎豆瓣評分 6.9/10 from 39 users
◎豆瓣鏈接 https://movie.douban.com/subject/2374518/
◎片  長 90 分鐘
◎導  演 Archie Mayo / 邁克爾·柯蒂斯 Michael Curtiz
◎編  劇 Edward Chodorov / Islin Auster
◎主  演 詹姆斯·卡格尼 James Cagney
      瑪吉·伊萬斯 Madge Evans
      阿瑟·拜倫 Arthur Byron
      艾倫·詹金斯 Allen Jenkins


◎標  簽 美國 | 美國電影 | 犯罪 | 1933 | 詹姆斯.卡格尼 | 美國經典黑幫 | 邁克爾·柯蒂斯 | 詹姆斯·卡格尼

◎簡  介

  Five members of a teen-age gang, including leader Jimmy Smith, are sent to the State Reformatory, presided over by the melodramatically callous Thompson. Soon, Patsy Gargan, a former gangster appointed Deputy Commissioner as a political favor, arrives complete with hip flask and blonde. Gargan falls for activist nurse Dorothy and, inspired by her, takes over the administration to run the place on radical principles. But Thompson, to conceal his years of graft, needs a quick way to discredit Gargan...
Video
ID : 1
Format : AVC
Format/Info : Advanced Video Codec
Format profile : [email protected]
Format settings : CABAC / 4 Ref Frames
Format settings, CABAC : Yes
Format settings, Reference frames : 4 frames
Codec ID : V_MPEG4/ISO/AVC
Duration : 1 h 30 min
Bit rate mode : Variable
Bit rate : 12.8 Mb/s
Maximum bit rate : 15.0 Mb/s
Width : 1 440 pixels
Height : 1 080 pixels
Display aspect ratio : 4:3
Frame rate mode : Constant
Frame rate : 23.976 (24000/1001) FPS
Color space : YUV
Chroma subsampling : 4:2:0
Bit depth : 8 bits
Scan type : Progressive
Bits/(Pixel*Frame) : 0.344
Stream size : 8.09 GiB (99%)
Writing library : x264 core 148 r2623 d5b2374
Encoding settings : cabac=1 / ref=4 / deblock=1:-1:-1 / analyse=0x3:0x133 / me=umh / subme=9 / psy=1 / psy_rd=1.00:0.15 / mixed_ref=1 / me_range=24 / chroma_me=1 / trellis=2 / 8x8dct=1 / cqm=0 / deadzone=21,11 / fast_pskip=1 / chroma_qp_offset=-3 / threads=34 / lookahead_threads=5 / sliced_threads=0 / nr=150 / decimate=1 / interlaced=0 / bluray_compat=0 / constrained_intra=0 / bframes=8 / b_pyramid=2 / b_adapt=2 / b_bias=0 / direct=3 / weightb=1 / open_gop=0 / weightp=2 / keyint=120 / keyint_min=61 / scenecut=0 / intra_refresh=0 / rc_lookahead=120 / rc=crf / mbtree=1 / crf=18.0 / qcomp=0.60 / qpmin=0 / qpmax=69 / qpstep=4 / vbv_maxrate=15000 / vbv_bufsize=31250 / crf_max=0.0 / nal_hrd=vbr / filler=0 / ip_ratio=1.40 / aq=3:1.00
Language : English
Default : Yes
Forced : No
Color range : Limited
Color primaries : BT.709
Transfer characteristics : BT.709
Matrix coefficients : BT.709

Audio
ID : 2
Format : AC-3
Format/Info : Audio Coding 3
Commercial name : Dolby Digital
Codec ID : A_AC3
Duration : 1 h 30 min
Bit rate mode : Constant
Bit rate : 192 kb/s
Channel(s) : 1 channel
Channel layout : C
Sampling rate : 48.0 kHz
Frame rate : 31.250 FPS (1536 SPF)
Bit depth : 16 bits
Compression mode : Lossy
Stream size : 124 MiB (1%)
Language : English
Service kind : Complete Main
Default : Yes
Forced : No

Text #1
ID : 3
Format : UTF-8
Codec ID : S_TEXT/UTF8
Codec ID/Info : UTF-8 Plain Text
Duration : 1 h 28 min
Bit rate : 71 b/s
Count of elements : 1270
Stream size : 46.3 KiB (0%)
Language : English
Default : No
Forced : No

Text #2
ID : 4
Format : UTF-8
Codec ID : S_TEXT/UTF8
Codec ID/Info : UTF-8 Plain Text
Duration : 1 h 28 min
Bit rate : 74 b/s
Count of elements : 1332
Stream size : 48.4 KiB (0%)
Title : SDH
Language : English
Default : No
Forced : No





1 個附件 售價 大小 下載 時間

The.Mayor.of.Hell.1933.1080p.AMZN.WEBRip.DD1.0.x264-SbR.torrent 0 金幣 82.73K 203 次 1月前

#1樓
發帖時間:2019-10-12 18:22:36   |   回復數:1
911degrees
隱世仙人♂
非常感謝,謝謝分享
1月前 #2樓
游客組