conanlcg
超級版主

[2019] [歐美] [劇情] [BD-Remux] 獅子王/獅子王真人版 The.Lion.King.2019.1080p.BluRay.REMUX.AVC.DTS-HD.MA.TrueHD.7.1.Atmos-

-->

帖子完整標題:獅子王/獅子王真人版 The.Lion.King.2019.1080p.BluRay.REMUX.AVC.DTS-HD.MA.TrueHD.7.1.Atmos-FGT 33.22GB




◎譯  名 獅子王 / 獅子王真人版 / 獅子王真實版 / 獅子王真獅版
◎片  名 The Lion King
◎年  代 2019
◎產  地 美國
◎類  別 劇情 / 動畫 / 冒險
◎語  言 英語 / 科薩語
◎上映日期 2019-07-12(中國大陸) / 2019-07-19(美國)
◎IMDb評分 7.1/10 from 104480 users
◎IMDb鏈接 http://www.imdb.com/title/tt6105098
◎豆瓣評分 7.4/10 from 196500 users
◎豆瓣鏈接 https://movie.douban.com/subject/26884354/
◎片  長 118分鐘
◎導  演 喬恩·費儒 Jon Favreau
◎編  劇 杰夫·內桑森 Jeff Nathanson / 布蘭達?查普曼 Brenda Chapman / 艾琳·梅琪 Irene Mecchi / 喬納森·羅伯茨 Jonathan Roberts / 琳達·伍爾芙頓 Linda Woolverton
◎主  演 唐納德·格洛弗 Donald Glover
      阿爾法·伍達德 Alfre Woodard
      詹姆斯·厄爾·瓊斯 James Earl Jones
      切瓦特·埃加福特 Chiwetel Ejiofor
      科甘-邁克爾·凱 Keegan-Michael Key
      塞斯·羅根 Seth Rogen
      比利·艾希納 Billy Eichner
      碧昂絲·諾爾斯 Beyoncé Knowles
      埃里克·安德烈 Eric André
      弗洛倫絲·卡松巴 Florence Kasumba
      約翰·卡尼 John Kani
      約翰·奧利弗 John Oliver
      艾米·塞德麗絲 Amy Sedaris


◎標  簽 迪士尼 | 經典 | 動畫 | 童年 | 美國 | 成長 | 2019 | 動物

◎簡  介

  非洲大草原上一輪紅日冉冉升起,為高大的乞力馬扎羅山披上層金色的光紗,所有的動物涌向了同一個地方——榮耀石,興奮地等待著一個重大消息的宣布:它們的國王木法沙將迎來自己的新生兒。
  這個新生兒就是小獅子辛巴,它是木法沙的法定接班人、榮耀石未來的國王。
  小獅子王辛巴在眾多熱情的朋友的陪伴下,不但經歷了生命中最光榮的時刻,也遭遇了最艱難的挑戰,最后終于成為了森林之王,也在周而復始生生不息的自然中體會出生命的真義。

◎獲獎情況

  第5屆豆瓣電影年度榜單(2018)
  最值得期待的外語電影(提名)
Video
ID : 1
Format : AVC
Format/Info : Advanced Video Codec
Format profile : [email protected]
Format settings : CABAC / 4 Ref Frames
Format settings, CABAC : Yes
Format settings, Reference frames : 4 frames
Codec ID : V_MPEG4/ISO/AVC
Duration : 1 h 58 min
Bit rate mode : Variable
Bit rate : 27.6 Mb/s
Maximum bit rate : 35.0 Mb/s
Width : 1 920 pixels
Height : 1 080 pixels
Display aspect ratio : 16:9
Frame rate mode : Constant
Frame rate : 23.976 (24000/1001) FPS
Color space : YUV
Chroma subsampling : 4:2:0
Bit depth : 8 bits
Scan type : Progressive
Bits/(Pixel*Frame) : 0.554
Stream size : 22.8 GiB (69%)
Title : The.Lion.King.2019.1080p.BluRay.REMUX.AVC.DTS-HD.MA.TrueHD.7.1.Atmos-FGT
Language : English
Default : No
Forced : No

Audio #1
ID : 2
Format : MLP FBA 16-ch
Format/Info : Meridian Lossless Packing FBA with 16-channel presentation
Commercial name : Dolby TrueHD with Dolby Atmos
Codec ID : A_TRUEHD
Duration : 1 h 58 min
Bit rate mode : Variable
Bit rate : 4 929 kb/s
Maximum bit rate : 7 332 kb/s
Channel(s) : 8 channels
Channel layout : L R C LFE Ls Rs Lb Rb
Sampling rate : 48.0 kHz
Frame rate : 1 200.000 FPS (40 SPF)
Compression mode : Lossless
Stream size : 4.07 GiB (12%)
Title : The.Lion.King.2019.1080p.BluRay.REMUX.AVC.DTS-HD.MA.TrueHD.7.1.Atmos-FGT
Language : English
Default : Yes
Forced : No
Number of dynamic objects : 13
Bed channel count : 1 channel
Bed channel configuration : LFE

Audio #2
ID : 3
Format : DTS XLL
Format/Info : Digital Theater Systems
Commercial name : DTS-HD Master Audio
Codec ID : A_DTS
Duration : 1 h 58 min
Bit rate mode : Variable
Bit rate : 5 091 kb/s
Channel(s) : 8 channels
Channel layout : C L R LFE Lb Rb Lss Rss
Sampling rate : 48.0 kHz
Frame rate : 93.750 FPS (512 SPF)
Bit depth : 24 bits
Compression mode : Lossless
Stream size : 4.21 GiB (13%)
Title : The.Lion.King.2019.1080p.BluRay.REMUX.AVC.DTS-HD.MA.TrueHD.7.1.Atmos-FGT
Language : English
Default : No
Forced : No

Audio #3
ID : 4
Format : AC-3
Format/Info : Audio Coding 3
Commercial name : Dolby Digital
Codec ID : A_AC3
Duration : 1 h 58 min
Bit rate mode : Constant
Bit rate : 640 kb/s
Channel(s) : 6 channels
Channel layout : L R C LFE Ls Rs
Sampling rate : 48.0 kHz
Frame rate : 31.250 FPS (1536 SPF)
Bit depth : 16 bits
Compression mode : Lossy
Stream size : 541 MiB (2%)
Title : The.Lion.King.2019.1080p.BluRay.REMUX.AVC.DTS-HD.MA.TrueHD.7.1.Atmos-FGT
Language : English
Service kind : Complete Main
Default : No
Forced : No

Audio #4
ID : 5
Format : AC-3
Format/Info : Audio Coding 3
Commercial name : Dolby Digital
Codec ID : A_AC3
Duration : 1 h 58 min
Bit rate mode : Constant
Bit rate : 320 kb/s
Channel(s) : 2 channels
Channel layout : L R
Sampling rate : 48.0 kHz
Frame rate : 31.250 FPS (1536 SPF)
Bit depth : 16 bits
Compression mode : Lossy
Stream size : 271 MiB (1%)
Title : The.Lion.King.2019.1080p.BluRay.REMUX.AVC.DTS-HD.MA.TrueHD.7.1.Atmos-FGT
Language : English
Service kind : Complete Main
Default : No
Forced : No

Audio #5
ID : 6
Format : AC-3
Format/Info : Audio Coding 3
Commercial name : Dolby Digital
Codec ID : A_AC3
Duration : 1 h 58 min
Bit rate mode : Constant
Bit rate : 640 kb/s
Channel(s) : 6 channels
Channel layout : L R C LFE Ls Rs
Sampling rate : 48.0 kHz
Frame rate : 31.250 FPS (1536 SPF)
Bit depth : 16 bits
Compression mode : Lossy
Stream size : 541 MiB (2%)
Title : The.Lion.King.2019.1080p.BluRay.REMUX.AVC.DTS-HD.MA.TrueHD.7.1.Atmos-FGT
Language : French
Service kind : Complete Main
Default : No
Forced : No

Audio #6
ID : 7
Format : AC-3
Format/Info : Audio Coding 3
Commercial name : Dolby Digital
Codec ID : A_AC3
Duration : 1 h 58 min
Bit rate mode : Constant
Bit rate : 640 kb/s
Channel(s) : 6 channels
Channel layout : L R C LFE Ls Rs
Sampling rate : 48.0 kHz
Frame rate : 31.250 FPS (1536 SPF)
Bit depth : 16 bits
Compression mode : Lossy
Stream size : 541 MiB (2%)
Title : The.Lion.King.2019.1080p.BluRay.REMUX.AVC.DTS-HD.MA.TrueHD.7.1.Atmos-FGT
Language : Spanish
Service kind : Complete Main
Default : No
Forced : No

Audio #7
ID : 8
Format : AC-3
Format/Info : Audio Coding 3
Commercial name : Dolby Digital
Codec ID : A_AC3
Duration : 1 h 58 min
Bit rate mode : Constant
Bit rate : 192 kb/s
Channel(s) : 2 channels
Channel layout : L R
Sampling rate : 48.0 kHz
Frame rate : 31.250 FPS (1536 SPF)
Bit depth : 16 bits
Compression mode : Lossy
Stream size : 162 MiB (0%)
Title : The.Lion.King.2019.1080p.BluRay.REMUX.AVC.DTS-HD.MA.TrueHD.7.1.Atmos-FGT
Language : English
Service kind : Complete Main
Default : No
Forced : No

Text #1
ID : 9
Format : UTF-8
Codec ID : S_TEXT/UTF8
Codec ID/Info : UTF-8 Plain Text
Duration : 1 h 50 min
Bit rate : 49 b/s
Count of elements : 1547
Stream size : 40.0 KiB (0%)
Title : English-SRT
Language : English
Default : Yes
Forced : No

Text #2
ID : 10
Format : UTF-8
Codec ID : S_TEXT/UTF8
Codec ID/Info : UTF-8 Plain Text
Duration : 1 h 52 min
Bit rate : 55 b/s
Count of elements : 1738
Stream size : 45.1 KiB (0%)
Title : English-SDH-SRT
Language : English
Default : No
Forced : No

Text #3
ID : 11
Format : PGS
Muxing mode : zlib
Codec ID : S_HDMV/PGS
Codec ID/Info : Picture based subtitle format used on BDs/HD-DVDs
Duration : 1 h 52 min
Bit rate : 37.5 kb/s
Count of elements : 3420
Stream size : 30.0 MiB (0%)
Title : English-PGS
Language : English
Default : No
Forced : No

Text #4
ID : 12
Format : PGS
Muxing mode : zlib
Codec ID : S_HDMV/PGS
Codec ID/Info : Picture based subtitle format used on BDs/HD-DVDs
Duration : 1 h 56 min
Bit rate : 31.5 kb/s
Count of elements : 2788
Stream size : 26.4 MiB (0%)
Title : French-PGS
Language : French
Default : No
Forced : No

Text #5
ID : 13
Format : PGS
Muxing mode : zlib
Codec ID : S_HDMV/PGS
Codec ID/Info : Picture based subtitle format used on BDs/HD-DVDs
Duration : 1 h 46 min
Bit rate : 32.7 kb/s
Count of elements : 2742
Stream size : 24.8 MiB (0%)
Title : Spanish-PGS
Language : Spanish
Default : No
Forced : No

Text #6
ID : 14
Format : PGS
Muxing mode : zlib
Codec ID : S_HDMV/PGS
Codec ID/Info : Picture based subtitle format used on BDs/HD-DVDs
Duration : 1 h 53 min
Bit rate : 70.1 kb/s
Count of elements : 4030
Stream size : 56.8 MiB (0%)
Title : English-COMMENTARY-PGS
Language : English
Default : No
Forced : No

Text #7
ID : 15
Format : PGS
Muxing mode : zlib
Codec ID : S_HDMV/PGS
Codec ID/Info : Picture based subtitle format used on BDs/HD-DVDs
Duration : 1 h 53 min
Bit rate : 58.8 kb/s
Count of elements : 3980
Stream size : 47.7 MiB (0%)
Title : French-COMMENTARY-PGS
Language : French
Default : No
Forced : No

Text #8
ID : 16
Format : PGS
Muxing mode : zlib
Codec ID : S_HDMV/PGS
Codec ID/Info : Picture based subtitle format used on BDs/HD-DVDs
Duration : 1 h 53 min
Bit rate : 60.5 kb/s
Count of elements : 3978
Stream size : 49.0 MiB (0%)
Title : Spanish-COMMENTARY-PGS
Language : Spanish
Default : No
Forced : No

Text #9
ID : 17
Format : PGS
Muxing mode : zlib
Codec ID : S_HDMV/PGS
Codec ID/Info : Picture based subtitle format used on BDs/HD-DVDs
Duration : 1 h 51 min
Bit rate : 49.1 kb/s
Count of elements : 1921
Stream size : 39.0 MiB (0%)
Title : English-SDH-PGS
Language : English
Default : No
Forced : No

Text #10
ID : 18
Format : PGS
Muxing mode : zlib
Codec ID : S_HDMV/PGS
Codec ID/Info : Picture based subtitle format used on BDs/HD-DVDs
Duration : 1 h 46 min
Bit rate : 23.3 kb/s
Count of elements : 1135
Stream size : 17.7 MiB (0%)
Title : French-PGS
Language : French
Default : No
Forced : No

Text #11
ID : 19
Format : PGS
Muxing mode : zlib
Codec ID : S_HDMV/PGS
Codec ID/Info : Picture based subtitle format used on BDs/HD-DVDs
Duration : 1 h 46 min
Bit rate : 18.6 kb/s
Count of elements : 1061
Stream size : 14.1 MiB (0%)
Title : Spanish-PGS
Language : Spanish
Default : No
Forced : No

Text #12
ID : 20
Format : PGS
Muxing mode : zlib
Codec ID : S_HDMV/PGS
Codec ID/Info : Picture based subtitle format used on BDs/HD-DVDs
Duration : 1 h 49 min
Bit rate : 393 b/s
Count of elements : 48
Stream size : 316 KiB (0%)
Title : French-FORCED-PGS
Language : French
Default : No
Forced : No

Text #13
ID : 21
Format : PGS
Muxing mode : zlib
Codec ID : S_HDMV/PGS
Codec ID/Info : Picture based subtitle format used on BDs/HD-DVDs
Duration : 1 h 43 min
Bit rate : 20 b/s
Count of elements : 4
Stream size : 15.5 KiB (0%)
Title : Spanish-FORCED-PGS
Language : Spanish
Default : No
Forced : No

Menu
00:00:00.000 : en:Chapter 01
00:04:50.498 : en:Chapter 02
00:10:51.067 : en:Chapter 03
00:17:47.691 : en:Chapter 04
00:23:53.014 : en:Chapter 05
00:30:00.131 : en:Chapter 06
00:33:05.066 : en:Chapter 07
00:37:09.310 : en:Chapter 08
00:43:42.911 : en:Chapter 09
00:50:47.335 : en:Chapter 10
00:55:02.716 : en:Chapter 11
00:59:48.459 : en:Chapter 12
01:06:27.233 : en:Chapter 13
01:14:32.092 : en:Chapter 14
01:18:26.410 : en:Chapter 15
01:23:07.899 : en:Chapter 16
01:28:04.654 : en:Chapter 17
01:33:10.876 : en:Chapter 18
01:37:13.744 : en:Chapter 19
01:44:39.189 : en:Chapter 20
01:47:47.335 : en:Chapter 21





1 個附件 售價 大小 下載 時間

The.Lion.King.2019.1080p.BluRay.REMUX.AVC.DTS-HD.MA.TrueHD.7.1.Atmos-FGT.torrent 0 金幣 83.61K 4907 次 1月前

#1樓
發帖時間:2019-10-12 18:46:53   |   回復數:2
tanchoohoon
武林盟主
感謝樓主的無私分享
1月前 #2樓
911degrees
隱世仙人♂
非常感謝,謝謝分享
1月前 #3樓
游客組