conanlcg
超級版主

[2017] [歐美] [其他] [WEB-1080P] 什么是健康/健康不可告人的秘密 What.the.Health.2017.1080p.WEBRip.x264-STRiFE 4.98GB

-->

帖子完整標題:什么是健康/健康不可告人的秘密 What.the.Health.2017.1080p.WEBRip.x264-STRiFE 4.98GB




◎譯  名 什么是健康 / 健康不可告人的秘密
◎片  名 What The Health
◎年  代 2017
◎產  地 美國
◎類  別 紀錄片
◎語  言 英語
◎上映日期 2017-03-07(紐約首映)
◎IMDb評分 7.5/10 from 23868 users
◎IMDb鏈接 https://www.imdb.com/title/tt5541848
◎豆瓣評分 6.5/10 from 367 users
◎豆瓣鏈接 https://movie.douban.com/subject/27000052/
◎片  長 97分鐘
◎導  演 Kip Andersen / Keegan Kuhn
◎主  演 Kip Andersen
      Larry Baldwin
      Neal Barnard
      Tia Blanco
      David Carter
      Jake Conroy


◎標  簽 紀錄片 | 美國 | 健康 | 2017 | Documentary | 飲食 | Netflix | health

◎簡  介

  An intrepid filmmaker on a journey of discovery as he uncovers possibly the largest health secret of our time and the collusion between industry, government, pharmaceutical and health organizations keeping this information from us.
Video
ID : 1
Format : AVC
Format/Info : Advanced Video Codec
Format profile : [email protected]
Format settings : CABAC / 5 Ref Frames
Format settings, CABAC : Yes
Format settings, Reference frames : 5 frames
Codec ID : V_MPEG4/ISO/AVC
Duration : 1 h 32 min
Bit rate : 7 622 kb/s
Width : 1 920 pixels
Height : 820 pixels
Display aspect ratio : 2.35:1
Frame rate mode : Constant
Frame rate : 23.976 (24000/1001) FPS
Color space : YUV
Chroma subsampling : 4:2:0
Bit depth : 8 bits
Scan type : Progressive
Bits/(Pixel*Frame) : 0.202
Stream size : 4.90 GiB (98%)
Writing library : x264 core 150 r2833 df79067
Encoding settings : cabac=1 / ref=5 / deblock=1:-3:-3 / analyse=0x3:0x113 / me=umh / subme=8 / psy=1 / psy_rd=1.00:0.15 / mixed_ref=1 / me_range=16 / chroma_me=1 / trellis=2 / 8x8dct=1 / cqm=0 / deadzone=21,11 / fast_pskip=0 / chroma_qp_offset=-2 / threads=6 / lookahead_threads=1 / sliced_threads=0 / nr=0 / decimate=1 / interlaced=0 / bluray_compat=0 / constrained_intra=0 / bframes=3 / b_pyramid=2 / b_adapt=1 / b_bias=0 / direct=3 / weightb=1 / open_gop=0 / weightp=2 / keyint=240 / keyint_min=23 / scenecut=40 / intra_refresh=0 / rc=crf / mbtree=0 / crf=17.0 / qcomp=0.60 / qpmin=0 / qpmax=69 / qpstep=4 / ip_ratio=1.40 / pb_ratio=1.30 / aq=3:0.80
Language : English
Default : Yes
Forced : No

Audio
ID : 2
Format : E-AC-3
Format/Info : Enhanced AC-3
Commercial name : Dolby Digital Plus
Codec ID : A_EAC3
Duration : 1 h 32 min
Bit rate mode : Constant
Bit rate : 128 kb/s
Channel(s) : 2 channels
Channel layout : L R
Sampling rate : 48.0 kHz
Frame rate : 31.250 FPS (1536 SPF)
Compression mode : Lossy
Stream size : 84.2 MiB (2%)
Language : English
Service kind : Complete Main
Default : Yes
Forced : No

Text #1
ID : 3
Format : UTF-8
Codec ID : S_TEXT/UTF8
Codec ID/Info : UTF-8 Plain Text
Duration : 1 h 29 min
Bit rate : 148 b/s
Count of elements : 1835
Stream size : 96.8 KiB (0%)
Language : English
Default : No
Forced : No

Text #2
ID : 4
Format : UTF-8
Codec ID : S_TEXT/UTF8
Codec ID/Info : UTF-8 Plain Text
Duration : 1 h 31 min
Bit rate : 145 b/s
Count of elements : 1951
Stream size : 97.4 KiB (0%)
Language : French
Default : No
Forced : No

Text #3
ID : 5
Format : UTF-8
Codec ID : S_TEXT/UTF8
Codec ID/Info : UTF-8 Plain Text
Duration : 1 h 31 min
Bit rate : 142 b/s
Count of elements : 1877
Stream size : 95.9 KiB (0%)
Language : German
Default : No
Forced : No

Text #4
ID : 6
Format : UTF-8
Codec ID : S_TEXT/UTF8
Codec ID/Info : UTF-8 Plain Text
Duration : 1 h 31 min
Bit rate : 136 b/s
Count of elements : 1866
Stream size : 91.3 KiB (0%)
Language : Italian
Default : No
Forced : No

Text #5
ID : 7
Format : UTF-8
Codec ID : S_TEXT/UTF8
Codec ID/Info : UTF-8 Plain Text
Duration : 1 h 31 min
Bit rate : 140 b/s
Count of elements : 1950
Stream size : 94.3 KiB (0%)
Language : Portuguese
Default : No
Forced : No





1 個附件 售價 大小 下載 時間

What.the.Health.2017.1080p.WEBRip.x264-STRiFE.torrent 0 金幣 199.88K 182 次 2小時前

#1樓
發帖時間:2019-10-12 19:09:23   |   回復數:0
游客組