conanlcg
超級版主

[2016] [其他] [其他] [WEB-1080P] 成為選美小姐 To.Be.a.Miss.2016.1080p.AMZN.WEBRip.DD5.1.x264-TrollHD 5.75GB

-->

帖子完整標題:成為選美小姐 To.Be.a.Miss.2016.1080p.AMZN.WEBRip.DD5.1.x264-TrollHD 5.75GB




◎譯  名 成為選美小姐
◎片  名 To Be a Miss
◎年  代 2016
◎產  地 美國 / 委內瑞拉
◎類  別 紀錄片
◎語  言 西班牙語 / 英語
◎上映日期 2016-08-01
◎IMDb評分 6.4/10 from 158 users
◎IMDb鏈接 https://www.imdb.com/title/tt3472928
◎豆瓣評分 0/10 from 0 users
◎豆瓣鏈接 https://movie.douban.com/subject/26999963/
◎導  演 Edward Ellis / Flor Salcedo / Aaron Woolf
◎編  劇 Edward Ellis / Flor Salcedo / Aaron Woolf

◎標  簽 紀錄片 | 美國 | 紀錄片 | 2016 | 委內瑞拉 | 女性 | Documentary | D5

◎簡  介

  In a country famous for its success in international beauty pageants, three young women are fighting to participate in their nation's most celebrated cultural institution. But obtaining a place in the Miss Venezuela contest is no easy task. Women must endure grueling diets, consent to intensive plastic surgery, and find the resources necessary to transform themselves from ordinary citizens into famous and illustrious Misses. To Be a Miss is a character-driven documentary that takes the viewer through the inner workings of Venezuela's renowned beauty factory, revealing the risks and rewards associated with this multi-billion dollar industry while exposing what nationalism, personal ambition, and the influence of mass media has meant for women in the country.
Video
ID : 1
Format : AVC
Format/Info : Advanced Video Codec
Format profile : [email protected]
Format settings : CABAC / 4 Ref Frames
Format settings, CABAC : Yes
Format settings, Reference frames : 4 frames
Codec ID : V_MPEG4/ISO/AVC
Duration : 1 h 24 min
Bit rate : 9 371 kb/s
Width : 1 920 pixels
Height : 1 080 pixels
Display aspect ratio : 16:9
Frame rate mode : Constant
Frame rate : 23.976 (24000/1001) FPS
Color space : YUV
Chroma subsampling : 4:2:0
Bit depth : 8 bits
Scan type : Progressive
Bits/(Pixel*Frame) : 0.188
Stream size : 5.52 GiB (96%)
Writing library : x264 core 148 r2638 7599210
Encoding settings : cabac=1 / ref=4 / deblock=1:-3:-3 / analyse=0x3:0x133 / me=umh / subme=10 / psy=1 / psy_rd=1.00:0.00 / mixed_ref=1 / me_range=48 / chroma_me=1 / trellis=2 / 8x8dct=1 / cqm=0 / deadzone=21,11 / fast_pskip=1 / chroma_qp_offset=-2 / threads=12 / lookahead_threads=2 / sliced_threads=0 / nr=0 / decimate=0 / interlaced=0 / bluray_compat=0 / constrained_intra=0 / bframes=8 / b_pyramid=2 / b_adapt=2 / b_bias=0 / direct=3 / weightb=1 / open_gop=0 / weightp=2 / keyint=240 / keyint_min=23 / scenecut=40 / intra_refresh=0 / rc=crf / mbtree=0 / crf=17.0 / qcomp=0.60 / qpmin=0 / qpmax=69 / qpstep=4 / ip_ratio=1.30 / pb_ratio=1.20 / aq=3:0.70
Default : Yes
Forced : No

Audio
ID : 6
Format : AC-3
Format/Info : Audio Coding 3
Commercial name : Dolby Digital
Codec ID : A_AC3
Duration : 1 h 24 min
Bit rate mode : Constant
Bit rate : 384 kb/s
Channel(s) : 6 channels
Channel layout : L R C LFE Ls Rs
Sampling rate : 48.0 kHz
Frame rate : 31.250 FPS (1536 SPF)
Bit depth : 16 bits
Compression mode : Lossy
Stream size : 232 MiB (4%)
Language : English
Service kind : Complete Main
Default : Yes
Forced : No

Text #1
ID : 2
Format : UTF-8
Codec ID : S_TEXT/UTF8
Codec ID/Info : UTF-8 Plain Text
Duration : 1 h 23 min
Bit rate : 53 b/s
Count of elements : 1478
Stream size : 33.2 KiB (0%)
Default : Yes
Forced : No

Text #2
ID : 3
Format : UTF-8
Codec ID : S_TEXT/UTF8
Codec ID/Info : UTF-8 Plain Text
Duration : 1 h 24 min
Bit rate : 55 b/s
Count of elements : 771
Stream size : 34.4 KiB (0%)
Default : No
Forced : No

Text #3
ID : 4
Format : UTF-8
Codec ID : S_TEXT/UTF8
Codec ID/Info : UTF-8 Plain Text
Duration : 1 h 24 min
Bit rate : 53 b/s
Count of elements : 764
Stream size : 33.2 KiB (0%)
Default : No
Forced : No

Text #4
ID : 5
Format : UTF-8
Codec ID : S_TEXT/UTF8
Codec ID/Info : UTF-8 Plain Text
Duration : 1 h 24 min
Bit rate : 11 b/s
Count of elements : 155
Stream size : 6.97 KiB (0%)
Default : No
Forced : No





1 個附件 售價 大小 下載 時間

To.Be.a.Miss.2016.1080p.AMZN.WEBRip.DD5.1.x264-TrollHD.torrent 0 金幣 58.12K 112 次 2小時前

#1樓
發帖時間:2019-10-12 19:13:07   |   回復數:0
游客組