conanlcg
超級版主

[2007] [歐美] [劇情] [WEB-1080P] 薩維奇一家/親情觸我心 The.Savages.2007.1080p.AMZN.WEBRip.DDP5.1.x264-monkee 11.26GB

-->

帖子完整標題:薩維奇一家/親情觸我心 The.Savages.2007.1080p.AMZN.WEBRip.DDP5.1.x264-monkee 11.26GB




◎譯  名 薩維奇一家 / 親情觸我心 / 沙煲兄妹日記 / 野蠻家族
◎片  名 The Savages
◎年  代 2007
◎產  地 美國
◎類  別 劇情 / 喜劇
◎語  言 英語 / 德語 / 粵語
◎上映日期 2007-11-28
◎IMDb評分 7.1/10 from 34667 users
◎IMDb鏈接 https://www.imdb.com/title/tt0775529
◎豆瓣評分 7.7/10 from 3582 users
◎豆瓣鏈接 https://movie.douban.com/subject/2081739/
◎片  長 114 分鐘
◎導  演 Tamara Jenkins
◎編  劇 Tamara Jenkins
◎主  演 Laura Linney
      Philip Seymour Hoffman
      Philip Bosco


◎標  簽 美國 | 獨立電影 | 親情 | 美國電影 | 家庭 | PhilipSeymourHoffman | 2007 | 劇情

◎簡  介

  溫迪(勞拉·琳妮 Laura Linney 飾)是個生活在紐約、38歲的劇作家,她的工作只能勉強維持生活,沒有婚姻,與一個有婦之夫維持著不正當關系,生活堪稱一團混亂;她有個生活得很瀟灑的哥哥喬恩(菲利普· 塞默·霍夫曼 Philip Seymour Hoffman 飾),在水牛城做大學教授,看上去春風得意,但也有自己的煩惱——女友即將離開他回東歐,他很傷心,但因不愿結婚沒有挽留。一日,獲悉父親(菲利普·鮑斯科 Philip Bosco 飾)得了老年癡呆,許久未聯系的兄妹二人重聚在一起,將父親安頓到療養院,盡到輪換照料他的責任。在這個麻煩和爭吵不斷過程中,兩兄妹回憶起兒時父親專制、不負責任的往事,對照二人現今各自的孤獨,重新思考了“家庭”的意義,而父親的死亡也終要到來……

◎獲獎情況

  第80屆奧斯卡金像獎(2008)
  最佳女主角(提名) 勞拉·琳妮
  最佳原創劇本(提名) 塔瑪拉·詹金斯

  第65屆金球獎(2008)
  電影類 音樂/喜劇片最佳男主角(提名) 菲利普·塞默·霍夫曼

  第8屆美國電影學會獎(2007)
  年度佳片
Video
ID : 1
Format : AVC
Format/Info : Advanced Video Codec
Format profile : [email protected]
Format settings : CABAC / 4 Ref Frames
Format settings, CABAC : Yes
Format settings, Reference frames : 4 frames
Codec ID : V_MPEG4/ISO/AVC
Duration : 1 h 54 min
Bit rate mode : Variable
Bit rate : 13.5 Mb/s
Maximum bit rate : 15.0 Mb/s
Width : 1 920 pixels
Height : 1 040 pixels
Display aspect ratio : 1.85:1
Frame rate mode : Constant
Frame rate : 23.976 (24000/1001) FPS
Color space : YUV
Chroma subsampling : 4:2:0
Bit depth : 8 bits
Scan type : Progressive
Bits/(Pixel*Frame) : 0.281
Stream size : 10.8 GiB (95%)
Title : The Savages bB003MS49YAB b1080pB
Writing library : x264 core 148 r2623 d5b2374
Encoding settings : cabac=1 / ref=4 / deblock=1:-1:-1 / analyse=0x3:0x133 / me=umh / subme=9 / psy=1 / psy_rd=1.00:0.15 / mixed_ref=1 / me_range=24 / chroma_me=1 / trellis=2 / 8x8dct=1 / cqm=0 / deadzone=21,11 / fast_pskip=1 / chroma_qp_offset=-3 / threads=32 / lookahead_threads=5 / sliced_threads=0 / nr=150 / decimate=1 / interlaced=0 / bluray_compat=0 / constrained_intra=0 / bframes=8 / b_pyramid=2 / b_adapt=2 / b_bias=0 / direct=3 / weightb=1 / open_gop=0 / weightp=2 / keyint=120 / keyint_min=61 / scenecut=0 / intra_refresh=0 / rc_lookahead=120 / rc=crf / mbtree=1 / crf=18.0 / qcomp=0.60 / qpmin=0 / qpmax=69 / qpstep=4 / vbv_maxrate=15000 / vbv_bufsize=31250 / crf_max=0.0 / nal_hrd=vbr / filler=0 / ip_ratio=1.40 / aq=3:1.00
Default : Yes
Forced : No
Color range : Limited
Color primaries : BT.709
Transfer characteristics : BT.709
Matrix coefficients : BT.709

Audio
ID : 2
Format : E-AC-3
Format/Info : Enhanced AC-3
Commercial name : Dolby Digital Plus
Codec ID : A_EAC3
Duration : 1 h 54 min
Bit rate mode : Constant
Bit rate : 640 kb/s
Channel(s) : 6 channels
Channel layout : L R C LFE Ls Rs
Sampling rate : 48.0 kHz
Frame rate : 31.250 FPS (1536 SPF)
Compression mode : Lossy
Stream size : 523 MiB (5%)
Title : English
Language : English
Service kind : Complete Main
Default : Yes
Forced : No

Text
ID : 3
Format : UTF-8
Codec ID : S_TEXT/UTF8
Codec ID/Info : UTF-8 Plain Text
Duration : 1 h 52 min
Bit rate : 61 b/s
Count of elements : 1479
Stream size : 50.7 KiB (0%)
Title : English
Language : English
Default : No
Forced : No

Menu
00:00:00.400 : en:00:00:00.400
00:00:40.130 : en:00:00:40.130
00:02:10.291 : en:00:02:10.291
00:04:51.323 : en:00:04:51.323
00:05:23.474 : en:00:05:23.474
00:07:54.667 : en:00:07:54.667
00:11:07.821 : en:00:11:07.821
00:13:41.860 : en:00:13:41.860
00:14:20.995 : en:00:14:20.995
00:16:35.108 : en:00:16:35.108
00:18:03.122 : en:00:18:03.122
00:20:20.137 : en:00:20:20.137
00:22:52.141 : en:00:22:52.141
00:23:27.154 : en:00:23:27.154
00:25:37.164 : en:00:25:37.164
00:27:16.169 : en:00:27:16.169
00:28:06.182 : en:00:28:06.182
00:30:24.192 : en:00:30:24.192
00:31:55.198 : en:00:31:55.198
00:33:02.214 : en:00:33:02.214
00:35:35.222 : en:00:35:35.222
00:37:03.233 : en:00:37:03.233
00:38:48.245 : en:00:38:48.245
00:40:49.266 : en:00:40:49.266
00:44:15.271 : en:00:44:15.271
00:45:07.274 : en:00:45:07.274
00:45:43.280 : en:00:45:43.280
00:46:41.297 : en:00:46:41.297
00:49:32.302 : en:00:49:32.302
00:50:24.308 : en:00:50:24.308
00:51:22.316 : en:00:51:22.316
00:52:36.326 : en:00:52:36.326
00:54:23.349 : en:00:54:23.349
00:58:14.360 : en:00:58:14.360
01:00:04.369 : en:01:00:04.369
01:01:34.379 : en:01:01:34.379
01:03:11.395 : en:01:03:11.395
01:05:54.411 : en:01:05:54.411
01:08:30.423 : en:01:08:30.423
01:10:26.438 : en:01:10:26.438
01:12:58.455 : en:01:12:58.455
01:15:45.471 : en:01:15:45.471
01:18:30.493 : en:01:18:30.493
01:22:08.519 : en:01:22:08.519
01:26:33.526 : en:01:26:33.526
01:27:40.543 : en:01:27:40.543
01:30:34.555 : en:01:30:34.555
01:32:32.559 : en:01:32:32.559
01:33:13.564 : en:01:33:13.564
01:33:57.578 : en:01:33:57.578
01:36:23.587 : en:01:36:23.587
01:37:45.601 : en:01:37:45.601
01:40:11.613 : en:01:40:11.613
01:42:09.633 : en:01:42:09.633
01:45:27.641 : en:01:45:27.641
01:46:45.650 : en:01:46:45.650
01:48:23.655 : en:01:48:23.655
01:49:12.685 : en:01:49:12.685





1 個附件 售價 大小 下載 時間

The.Savages.2007.1080p.AMZN.WEBRip.DDP5.1.x264-monkee.torrent 0 金幣 56.92K 133 次 2小時前

#1樓
發帖時間:2019-10-12 19:17:24   |   回復數:0
游客組