conanlcg
超級版主

[更 早] [歐美] [劇情] [WEB-1080P] 驚險重重/最后的航行 The.Last.Voyage.1960.1080p.AMZN.WEBRip.DD2.0.x264-SbR 9.44GB

-->

帖子完整標題:驚險重重/最后的航行 The.Last.Voyage.1960.1080p.AMZN.WEBRip.DD2.0.x264-SbR 9.44GB




◎譯  名 驚險重重 / 最后的航行 / 豪華郵船沉沒記
◎片  名 The Last Voyage
◎年  代 1960
◎產  地 美國
◎類  別 劇情
◎語  言 英語
◎上映日期 1960-02-19
◎IMDb評分 6.6/10 from 1708 users
◎IMDb鏈接 https://www.imdb.com/title/tt0054016
◎豆瓣評分 0/10 from 0 users
◎豆瓣鏈接 https://movie.douban.com/subject/1294372/
◎片  長 91 分鐘
◎導  演 安德魯·L·斯通 Andrew L. Stone
◎編  劇 安德魯·L·斯通 Andrew L. Stone
◎主  演 羅伯特·斯塔克 Robert Stack
      多羅茜·馬龍 Dorothy Malone
      喬治·桑德斯 George Sanders


◎標  簽 美國 | 喬治·桑德斯 | Andrew_L.Stone | 美國 | 災難 | 災難 | Dorothy_Malone | DorothyMalone

◎簡  介

  The S. S. Claridon is scheduled for her five last voyages after thirty-eight years of service. After an explosion in the boiler room, Captain Robert Adams (George Sanders) is reluctant to evacuate the steamship. While the crew fights to hold a bulkhead between the flooded boiler room and the engine room and avoid the sinking of the vessel, the passenger Cliff Henderson (Robert Stack) struggles against time trying to save his beloved wife Laurie Henderson (Dorothy Malone), who is trapped under a steel beam in her cabin, with the support of the crewmember Hank Lawson (Woody Strode).

◎獲獎情況

  第33屆奧斯卡金像獎(1961)
  最佳特效(提名) Augie Lohman
Video
ID : 1
Format : AVC
Format/Info : Advanced Video Codec
Format profile : [email protected]
Format settings : CABAC / 4 Ref Frames
Format settings, CABAC : Yes
Format settings, Reference frames : 4 frames
Codec ID : V_MPEG4/ISO/AVC
Duration : 1 h 31 min
Bit rate mode : Variable
Bit rate : 14.6 Mb/s
Maximum bit rate : 15.0 Mb/s
Width : 1 920 pixels
Height : 1 080 pixels
Display aspect ratio : 16:9
Frame rate mode : Constant
Frame rate : 23.976 (24000/1001) FPS
Color space : YUV
Chroma subsampling : 4:2:0
Bit depth : 8 bits
Scan type : Progressive
Bits/(Pixel*Frame) : 0.293
Stream size : 9.30 GiB (98%)
Language : English
Default : Yes
Forced : No
Color range : Limited
Color primaries : BT.709
Transfer characteristics : BT.709
Matrix coefficients : BT.709

Audio
ID : 2
Format : E-AC-3
Format/Info : Enhanced AC-3
Commercial name : Dolby Digital Plus
Codec ID : A_EAC3
Duration : 1 h 31 min
Bit rate mode : Constant
Bit rate : 224 kb/s
Channel(s) : 2 channels
Channel layout : L R
Sampling rate : 48.0 kHz
Frame rate : 31.250 FPS (1536 SPF)
Compression mode : Lossy
Stream size : 146 MiB (2%)
Language : English
Service kind : Complete Main
Default : Yes
Forced : No

Text #1
ID : 3
Format : UTF-8
Codec ID : S_TEXT/UTF8
Codec ID/Info : UTF-8 Plain Text
Duration : 1 h 30 min
Bit rate : 79 b/s
Count of elements : 1303
Stream size : 53.0 KiB (0%)
Language : English
Default : No
Forced : No

Text #2
ID : 4
Format : UTF-8
Codec ID : S_TEXT/UTF8
Codec ID/Info : UTF-8 Plain Text
Duration : 1 h 30 min
Bit rate : 76 b/s
Count of elements : 1435
Stream size : 50.7 KiB (0%)
Title : SDH
Language : English
Default : No
Forced : No

Menu
00:00:00.000 : en:01. Engine Room Fire
00:06:22.173 : en:02. A Skipper Like This
00:11:40.742 : en:03. Blowing Off Steam
00:14:45.259 : en:04. Boiler Blast
00:20:00.741 : en:05. Don't Move
00:25:34.283 : en:06. Shoring the Bulkhead
00:31:07.741 : en:07. Perilous Crossing
00:35:08.023 : en:08. Mayday
00:40:01.065 : en:09. Holding Up the Torch
00:46:41.215 : en:10. Lower the Lifeboats
00:51:12.486 : en:11. If I Could Die
00:57:00.751 : en:12. Defiant Daughter
01:02:52.727 : en:13. Confronting the Captain
01:08:39.282 : en:14. Horribly Hopeless
01:13:31.824 : en:15. Smokestack Collapse
01:17:51.375 : en:16. Silent Skipper
01:22:40.873 : en:17. Head Above Water
01:25:47.392 : en:18. Abandoning Ship





1 個附件 售價 大小 下載 時間

The.Last.Voyage.1960.1080p.AMZN.WEBRip.DD2.0.x264-SbR.torrent 0 金幣 94.95K 77 次 1小時前

#1樓
發帖時間:2019-10-12 19:24:19   |   回復數:0
游客組