conanlcg
超級版主

[更 早] [歐美] [喜劇] [WEB-1080P] 音樂潮人 Tapeheads.1988.1080p.AMZN.WEBRip.DDP2.0.x264-monkee 9.68GB

-->

帖子完整標題:音樂潮人 Tapeheads.1988.1080p.AMZN.WEBRip.DDP2.0.x264-monkee 9.68GB




◎譯  名 音樂潮人
◎片  名 Tapeheads
◎年  代 1988
◎產  地 美國
◎類  別 喜劇
◎語  言 英語
◎上映日期 1988-09-13
◎IMDb評分 5.8/10 from 3621 users
◎IMDb鏈接 http://www.imdb.com/title/tt0096223
◎豆瓣評分 6.8/10 from 43 users
◎豆瓣鏈接 https://movie.douban.com/subject/1791702/
◎片  長 93 分鐘
◎導  演 Bill Fishman
◎編  劇 Bill Fishman
◎主  演 John Cusack
      Tim Robbins


◎標  簽 JohnCusack | 喜劇 | 音樂 | 美國 | TimRobbins | 1988 | 音樂與電影 | Comedy

◎簡  介

  After being fired from their jobs as security guards, Josh and Ivan form Video Aces, a video production company. Using Josh's talent and Ivan's business savvy, they attempt to hit it big in the business while doing projects they want to do. Among those whose paths cross with theirs are Norman Mart, an extremely right-wing presidential candidate; Samantha Gregory, a scheming music reporter; and Mo Fuzz, a producer willing to give them a chance or three if they'll work on spec.
Video
ID : 1
Format : AVC
Format/Info : Advanced Video Codec
Format profile : [email protected]
Format settings : CABAC / 4 Ref Frames
Format settings, CABAC : Yes
Format settings, Reference frames : 4 frames
Codec ID : V_MPEG4/ISO/AVC
Duration : 1 h 32 min
Bit rate mode : Variable
Bit rate : 14.4 Mb/s
Maximum bit rate : 15.0 Mb/s
Width : 1 920 pixels
Height : 1 080 pixels
Display aspect ratio : 16:9
Frame rate mode : Constant
Frame rate : 23.976 (24000/1001) FPS
Color space : YUV
Chroma subsampling : 4:2:0
Bit depth : 8 bits
Scan type : Progressive
Bits/(Pixel*Frame) : 0.289
Stream size : 9.34 GiB (97%)
Writing library : x264 core 148 r2623 d5b2374
Encoding settings : cabac=1 / ref=4 / deblock=1:-1:-1 / analyse=0x3:0x133 / me=umh / subme=9 / psy=1 / psy_rd=1.00:0.15 / mixed_ref=1 / me_range=24 / chroma_me=1 / trellis=2 / 8x8dct=1 / cqm=0 / deadzone=21,11 / fast_pskip=1 / chroma_qp_offset=-3 / threads=34 / lookahead_threads=5 / sliced_threads=0 / nr=150 / decimate=1 / interlaced=0 / bluray_compat=0 / constrained_intra=0 / bframes=8 / b_pyramid=2 / b_adapt=2 / b_bias=0 / direct=3 / weightb=1 / open_gop=0 / weightp=2 / keyint=120 / keyint_min=61 / scenecut=0 / intra_refresh=0 / rc_lookahead=120 / rc=crf / mbtree=1 / crf=18.0 / qcomp=0.60 / qpmin=0 / qpmax=69 / qpstep=4 / vbv_maxrate=15000 / vbv_bufsize=31250 / crf_max=0.0 / nal_hrd=vbr / filler=0 / ip_ratio=1.40 / aq=3:1.00
Default : Yes
Forced : No
Color range : Limited
Color primaries : BT.709
Transfer characteristics : BT.709
Matrix coefficients : BT.709

Audio
ID : 2
Format : E-AC-3
Format/Info : Enhanced AC-3
Commercial name : Dolby Digital Plus
Codec ID : A_EAC3
Duration : 1 h 32 min
Bit rate mode : Constant
Bit rate : 224 kb/s
Channel(s) : 2 channels
Channel layout : L R
Sampling rate : 48.0 kHz
Frame rate : 31.250 FPS (1536 SPF)
Compression mode : Lossy
Stream size : 149 MiB (2%)
Language : English
Service kind : Complete Main
Default : Yes
Forced : No

Text
ID : 3
Format : UTF-8
Codec ID : S_TEXT/UTF8
Codec ID/Info : UTF-8 Plain Text
Language : English
Default : No
Forced : No





1 個附件 售價 大小 下載 時間

Tapeheads.1988.1080p.AMZN.WEBRip.DDP2.0.x264-monkee.torrent 0 金幣 97.36K 56 次 1小時前

#1樓
發帖時間:2019-10-12 19:29:06   |   回復數:0
游客組