conanlcg
超級版主

[2014] [其他] [動作] [WEB-1080P] 美版裂口女 Slit.Mouth.Woman.in.LA.2014.1080p.WEBRip.x264-iNTENSO 3.63GB

-->

帖子完整標題:美版裂口女 Slit.Mouth.Woman.in.LA.2014.1080p.WEBRip.x264-iNTENSO 3.63GB




◎譯  名 美版裂口女 / Slit Mouth Woman in LA
◎片  名 口裂け女 in L.A.
◎年  代 2014
◎產  地 日本 / 美國
◎類  別 動作 / 懸疑 / 恐怖
◎語  言 英語 / 日語
◎上映日期 2014-11-01 / 2016-01-16(日本)
◎IMDb評分 4.2/10 from 69 users
◎IMDb鏈接 https://www.imdb.com/title/tt3885442
◎豆瓣評分 0/10 from 0 users
◎豆瓣鏈接 https://movie.douban.com/subject/26313256/
◎片  長 104分鐘
◎導  演 廣瀨陽 Akira Hirose / Hiro Kay
◎編  劇 廣瀨陽 Akira Hirose
◎主  演 Megumi Ageishi
      Mennell Alkhawaja
      Courtney Bandeko
      Jordan Borges
      彼得·克拉夫 Peter Cluff
      Clayton Cook
      Geryh 'Hurricane' Curtis
      Stefanie Estes
      Monique Marie Gelineau
      Amelia M. Gotham
      David Gunther
      Kanshichi Hiro
      Eiji Inoue
      John Klopping
      Eiji Leon Lee


◎標  簽 恐怖 | 美國 | 口裂女 | 驚悚 | 日本 | 電影 | 日本電影 | 恐怖驚悚懸疑重口血腥

◎簡  介

  日本的都市傳說“裂口女”在美國再度被拍成恐怖電影。故事發生在洛杉磯。克萊爾的朋友莫妮卡被裂口女所殺,后來莫妮卡就一直被恐怖夢境所困擾。不久,她在研究都市傳說的姐姐薩拉被懷疑是裂口女。另一方面,薩拉說,克萊爾才是裂口女。事件推進調查中....
Video
ID : 1
Format : AVC
Format/Info : Advanced Video Codec
Format profile : [email protected]
Format settings : CABAC / 5 Ref Frames
Format settings, CABAC : Yes
Format settings, Reference frames : 5 frames
Codec ID : V_MPEG4/ISO/AVC
Duration : 1 h 43 min
Bit rate : 4 855 kb/s
Width : 1 920 pixels
Height : 816 pixels
Display aspect ratio : 2.35:1
Frame rate mode : Constant
Frame rate : 23.976 (24000/1001) FPS
Color space : YUV
Chroma subsampling : 4:2:0
Bit depth : 8 bits
Scan type : Progressive
Bits/(Pixel*Frame) : 0.129
Stream size : 3.50 GiB (96%)
Writing library : x264 core 152 r2851 ba24899
Encoding settings : cabac=1 / ref=5 / deblock=1:-3:-3 / analyse=0x3:0x133 / me=umh / subme=11 / psy=1 / psy_rd=1.05:0.15 / mixed_ref=1 / me_range=16 / chroma_me=1 / trellis=2 / 8x8dct=1 / cqm=0 / deadzone=21,11 / fast_pskip=0 / chroma_qp_offset=-3 / threads=12 / lookahead_threads=1 / sliced_threads=0 / nr=0 / decimate=1 / interlaced=0 / bluray_compat=0 / constrained_intra=0 / bframes=3 / b_pyramid=2 / b_adapt=2 / b_bias=0 / direct=3 / weightb=1 / open_gop=0 / weightp=2 / keyint=250 / keyint_min=24 / scenecut=40 / intra_refresh=0 / rc_lookahead=50 / rc=crf / mbtree=1 / crf=17.0 / qcomp=0.60 / qpmin=0 / qpmax=69 / qpstep=4 / ip_ratio=1.40 / aq=3:0.65
Language : English
Default : Yes
Forced : No

Audio
ID : 2
Format : AAC LC
Format/Info : Advanced Audio Codec Low Complexity
Codec ID : A_AAC-2
Duration : 1 h 43 min
Bit rate : 192 kb/s
Channel(s) : 2 channels
Channel layout : L R
Sampling rate : 48.0 kHz
Frame rate : 46.875 FPS (1024 SPF)
Compression mode : Lossy
Stream size : 139 MiB (4%)
Language : English
Default : Yes
Forced : No





1 個附件 售價 大小 下載 時間

Slit.Mouth.Woman.in.LA.2014.1080p.WEBRip.x264-iNTENSO.torrent 0 金幣 145.98K 126 次 1小時前

#1樓
發帖時間:2019-10-12 19:29:37   |   回復數:0
游客組