conanlcg
超級版主

[更 早] [歐美] [劇情] [WEB-1080P] 墨菲的戰爭/新戰海浮生 Murphys.War.1971.1080p.AMZN.WEBRip.AAC2.0.x264-SbR 8.13GB

-->

帖子完整標題:墨菲的戰爭/新戰海浮生 Murphys.War.1971.1080p.AMZN.WEBRip.AAC2.0.x264-SbR 8.13GB




◎譯  名 墨菲的戰爭 / 新戰海浮生 / 特殊的戰爭
◎片  名 Murphy's War
◎年  代 1971
◎產  地 英國
◎類  別 劇情 / 戰爭
◎語  言 英語 / 德語
◎上映日期 1971-01-27
◎IMDb評分 6.8/10 from 2791 users
◎IMDb鏈接 https://www.imdb.com/title/tt0067458
◎豆瓣評分 7.9/10 from 342 users
◎豆瓣鏈接 https://movie.douban.com/subject/1308522/
◎片  長 Argentina: 105 分鐘
◎導  演 Peter Yates
◎編  劇 Stirling Silliphant
◎主  演 Peter O'Toole
      Sian Phillips
      Philippe Noiret


◎標  簽 二戰 | 戰爭 | 英國 | 英國電影 | 1971 | 執著 | 電影 | 劇情

◎簡  介

  故事發生在第二次世界大戰末期,當時墨菲和他的戰友被一艘納粹德軍潛艇擊沉,除了他以外,戰友們無一生還,墨菲被路易士救起并同路易士成為好友,墨菲心中卻一直有個結,就是想炸毀那艘德國潛艇,并憑借一己之力搞到了一顆從德國潛艇上發射的但卻并未引爆的魚雷。但此時二戰結束的消息傳來了,而墨菲卻絕對忘不了納粹德軍所做過的一切,一直不肯放過那艘德國潛艇,他能成功嗎?
Video
ID : 1
Format : AVC
Format/Info : Advanced Video Codec
Format profile : [email protected]
Format settings : CABAC / 4 Ref Frames
Format settings, CABAC : Yes
Format settings, Reference frames : 4 frames
Codec ID : V_MPEG4/ISO/AVC
Duration : 1 h 46 min
Bit rate mode : Variable
Bit rate : 10.8 Mb/s
Maximum bit rate : 15.0 Mb/s
Width : 1 920 pixels
Height : 816 pixels
Display aspect ratio : 2.35:1
Frame rate mode : Constant
Frame rate : 23.976 (24000/1001) FPS
Color space : YUV
Chroma subsampling : 4:2:0
Bit depth : 8 bits
Scan type : Progressive
Bits/(Pixel*Frame) : 0.287
Stream size : 8.03 GiB (99%)
Language : English
Default : Yes
Forced : No
Color range : Limited
Color primaries : BT.709
Transfer characteristics : BT.709
Matrix coefficients : BT.709

Audio
ID : 2
Format : AAC LC
Format/Info : Advanced Audio Codec Low Complexity
Codec ID : A_AAC-2
Duration : 1 h 46 min
Bit rate : 125 kb/s
Channel(s) : 2 channels
Channel layout : L R
Sampling rate : 48.0 kHz
Frame rate : 46.875 FPS (1024 SPF)
Compression mode : Lossy
Stream size : 95.6 MiB (1%)
Language : English
Default : Yes
Forced : No

Text
ID : 3
Format : UTF-8
Codec ID : S_TEXT/UTF8
Codec ID/Info : UTF-8 Plain Text
Duration : 1 h 45 min
Bit rate : 24 b/s
Count of elements : 821
Stream size : 19.3 KiB (0%)
Language : English
Default : No
Forced : No





1 個附件 售價 大小 下載 時間

Murphys.War.1971.1080p.AMZN.WEBRip.AAC2.0.x264-SbR.torrent 0 金幣 81.82K 161 次 1小時前

#1樓
發帖時間:2019-10-12 19:35:58   |   回復數:0
游客組