conanlcg
超級版主

[2010] [歐美] [WEB-1080P] 荒船驚魂 Fitful.2011.1080p.WEBRip.x264-iNTENSO 5.93GB

-->

帖子完整標題:荒船驚魂 Fitful.2011.1080p.WEBRip.x264-iNTENSO 5.93GB




◎譯  名 荒船驚魂 / Deadrise
◎片  名 Fitful
◎年  代 2010
◎產  地 美國
◎語  言 英語
◎上映日期 2011
◎IMDb評分 3.5/10 from 222 users
◎IMDb鏈接 https://www.imdb.com/title/tt1552192
◎豆瓣評分 0/10 from 0 users
◎豆瓣鏈接 https://movie.douban.com/subject/5160204/
◎片  長 95 分鐘
◎導  演 Richard Brauer
◎編  劇 Richard Brauer
◎主  演 蕾妮·奧康納 Renée O'Connor
      Larry Joe Campbell
      Nate Mitchell
      Grant R. Krause


◎標  簽 美國電影 | 電影 | 爛片 | 字幕

◎簡  介

  保拉,(蕾妮奧康納)一員的歷史性信托,包扎在中西部成功和重要的項目。在她回家的路上,芝加哥,她會從她的辦公室打個電話,被要求檢查出一個新的申請人。這對她的方式,無論如何,盡管它的上周五晚,她需要一個快速迂回和校長到曾經驕傲的輪船沿工業濱水網站。黑400英尺的船只形式對織機的天空,并收集在碼頭附近的積水死魚。抵達后,她的時刻,她的車是重度殘疾,她的生命即將永遠改變。在混亂后面,她遇到了與自我任命為看守政府總理,VIGS誘導(拉里和Joe Campbell)誰是在船上多為看守政府總理。如何能在惡劣的情況下最好的,她需要他,他表示愿意花費在狹窄的,但歷史staterooms一晚上。他請她吃飯和壞的啤酒。她生病的食物和退休到她的房間睡覺,但令人吃驚的是喚醒和令人信服的騷亂,導致在這黑暗和可怕的把她送到所有點不斷。最后,她發現了真相,她的生活將永遠是相同的。
Video
ID : 1
Format : AVC
Format/Info : Advanced Video Codec
Format profile : [email protected]
Format settings : CABAC / 4 Ref Frames
Format settings, CABAC : Yes
Format settings, Reference frames : 4 frames
Codec ID : V_MPEG4/ISO/AVC
Duration : 1 h 29 min
Bit rate : 9 278 kb/s
Width : 1 920 pixels
Height : 1 080 pixels
Display aspect ratio : 16:9
Frame rate mode : Constant
Frame rate : 23.976 (24000/1001) FPS
Color space : YUV
Chroma subsampling : 4:2:0
Bit depth : 8 bits
Scan type : Progressive
Bits/(Pixel*Frame) : 0.187
Stream size : 5.81 GiB (98%)
Writing library : x264 core 155 r2901 7d0ff22
Encoding settings : cabac=1 / ref=4 / deblock=1:-3:-3 / analyse=0x3:0x133 / me=umh / subme=11 / psy=1 / psy_rd=1.05:0.15 / mixed_ref=1 / me_range=16 / chroma_me=1 / trellis=2 / 8x8dct=1 / cqm=0 / deadzone=21,11 / fast_pskip=0 / chroma_qp_offset=-3 / threads=34 / lookahead_threads=2 / sliced_threads=0 / nr=0 / decimate=1 / interlaced=0 / bluray_compat=0 / constrained_intra=0 / bframes=3 / b_pyramid=2 / b_adapt=2 / b_bias=0 / direct=3 / weightb=1 / open_gop=0 / weightp=2 / keyint=250 / keyint_min=24 / scenecut=40 / intra_refresh=0 / rc_lookahead=50 / rc=crf / mbtree=1 / crf=17.0 / qcomp=0.60 / qpmin=0 / qpmax=69 / qpstep=4 / ip_ratio=1.40 / aq=3:0.65
Language : English
Default : Yes
Forced : No

Audio
ID : 2
Format : AAC LC
Format/Info : Advanced Audio Codec Low Complexity
Codec ID : A_AAC-2
Duration : 1 h 29 min
Bit rate : 192 kb/s
Channel(s) : 2 channels
Channel layout : L R
Sampling rate : 48.0 kHz
Frame rate : 46.875 FPS (1024 SPF)
Compression mode : Lossy
Stream size : 121 MiB (2%)
Language : English
Default : Yes
Forced : No





1 個附件 售價 大小 下載 時間

Fitful.2011.1080p.WEBRip.x264-iNTENSO.torrent 0 金幣 119.09K 70 次 1小時前

#1樓
發帖時間:2019-10-12 19:43:30   |   回復數:0
游客組