conanlcg
超級版主

[2009] [歐美] [其他] [WEB-1080P] 面對阿里 Facing.Ali.2009.1080p.AMZN.WEBRip.DDP5.1.x264-monkee 5.07GB

-->

帖子完整標題:面對阿里 Facing.Ali.2009.1080p.AMZN.WEBRip.DDP5.1.x264-monkee 5.07GB




◎譯  名 面對阿里
◎片  名 Facing Ali
◎年  代 2009
◎產  地 美國
◎類  別 紀錄片 / 運動
◎語  言 英語
◎上映日期 2009-05-29
◎IMDb評分 8.0/10 from 3170 users
◎IMDb鏈接 https://www.imdb.com/title/tt1419318
◎豆瓣評分 7.9/10 from 77 users
◎豆瓣鏈接 https://movie.douban.com/subject/3748883/
◎導  演 Pete McCormack
◎主  演 George Chuvalo
      Henry Cooper
      George Foreman
      Joe Frazier
      Ron Lyle
      Earnie Shaver


◎標  簽 紀錄片 | 美國 | 拳擊 | 傳記 | ali | 2009 | 美國電影 | muhammad

◎簡  介

  拳擊手是一種需要力量、耐力和速度的職業,喜歡拳擊的人往往都崇尚拳擊比賽時帶來的暴力和刺激。對于小男孩卡修斯·克萊來說,最初拳擊也可能只是生存和獲得榮譽的手段。在紀錄片《面對阿里》中,這個后來更名為阿里的男人告訴了我們,拳擊是一種追求平等、永不停歇的精神。
Video
ID : 1
Format : AVC
Format/Info : Advanced Video Codec
Format profile : [email protected]
Format settings : CABAC / 4 Ref Frames
Format settings, CABAC : Yes
Format settings, Reference frames : 4 frames
Codec ID : V_MPEG4/ISO/AVC
Duration : 1 h 41 min
Bit rate mode : Variable
Bit rate : 6 544 kb/s
Maximum bit rate : 15.0 Mb/s
Width : 1 920 pixels
Height : 1 080 pixels
Display aspect ratio : 16:9
Frame rate mode : Constant
Frame rate : 23.976 (24000/1001) FPS
Color space : YUV
Chroma subsampling : 4:2:0
Bit depth : 8 bits
Scan type : Progressive
Bits/(Pixel*Frame) : 0.132
Stream size : 4.62 GiB (91%)
Writing library : x264 core 148 r2623 d5b2374
Encoding settings : cabac=1 / ref=4 / deblock=1:-1:-1 / analyse=0x3:0x133 / me=umh / subme=9 / psy=1 / psy_rd=1.00:0.15 / mixed_ref=1 / me_range=24 / chroma_me=1 / trellis=2 / 8x8dct=1 / cqm=0 / deadzone=21,11 / fast_pskip=1 / chroma_qp_offset=-3 / threads=34 / lookahead_threads=5 / sliced_threads=0 / nr=150 / decimate=1 / interlaced=0 / bluray_compat=0 / constrained_intra=0 / bframes=8 / b_pyramid=2 / b_adapt=2 / b_bias=0 / direct=3 / weightb=1 / open_gop=0 / weightp=2 / keyint=120 / keyint_min=61 / scenecut=0 / intra_refresh=0 / rc_lookahead=120 / rc=crf / mbtree=1 / crf=18.0 / qcomp=0.60 / qpmin=0 / qpmax=69 / qpstep=4 / vbv_maxrate=15000 / vbv_bufsize=31250 / crf_max=0.0 / nal_hrd=vbr / filler=0 / ip_ratio=1.40 / aq=3:1.00
Default : Yes
Forced : No
Color range : Limited
Color primaries : BT.709
Transfer characteristics : BT.709
Matrix coefficients : BT.709

Audio
ID : 2
Format : E-AC-3
Format/Info : Enhanced AC-3
Commercial name : Dolby Digital Plus
Codec ID : A_EAC3
Duration : 1 h 41 min
Bit rate mode : Constant
Bit rate : 640 kb/s
Channel(s) : 6 channels
Channel layout : L R C LFE Ls Rs
Sampling rate : 48.0 kHz
Frame rate : 31.250 FPS (1536 SPF)
Compression mode : Lossy
Stream size : 463 MiB (9%)
Language : English
Service kind : Complete Main
Default : Yes
Forced : No

Text
ID : 3
Format : UTF-8
Codec ID : S_TEXT/UTF8
Codec ID/Info : UTF-8 Plain Text
Duration : 1 h 40 min
Bit rate : 86 b/s
Count of elements : 1384
Stream size : 63.9 KiB (0%)
Language : English
Default : No
Forced : No





1 個附件 售價 大小 下載 時間

Facing.Ali.2009.1080p.AMZN.WEBRip.DDP5.1.x264-monkee.torrent 0 金幣 51.31K 91 次 1小時前

#1樓
發帖時間:2019-10-12 19:46:13   |   回復數:0
游客組