conanlcg
超級版主

[更 早] [歐美] [喜劇] [WEB-1080P] 墜入凡間/天神下凡 Down.to.Earth.1947.1080p.AMZN.WEBRip.DD2.0.x264-SbR 9.44GB

-->

帖子完整標題:墜入凡間/天神下凡 Down.to.Earth.1947.1080p.AMZN.WEBRip.DD2.0.x264-SbR 9.44GB




◎譯  名 墜入凡間 / 天神下凡
◎片  名 Down to Earth
◎年  代 1947
◎產  地 美國
◎類  別 喜劇 / 愛情 / 歌舞 / 奇幻
◎語  言 英語
◎上映日期 1947-08-21
◎IMDb評分 6.3/10 from 970 users
◎IMDb鏈接 https://www.imdb.com/title/tt0039337
◎豆瓣評分 7.0/10 from 53 users
◎豆瓣鏈接 https://movie.douban.com/subject/3670524/
◎片  長 101 分鐘
◎導  演 亞歷山大·赫爾 Alexander Hall
◎編  劇 哈里·西格爾 Harry Segall / 埃德溫·布盧姆 Edwin Blum / 唐·哈特曼 Don Hartman
◎主  演 麗塔·海華斯 Rita Hayworth
      拉里·帕克斯 Larry Parks
      馬克·普拉特 Marc Platt
      羅蘭·卡爾弗 Roland Culver
      詹姆斯·格利森 James Gleason
      愛德華·艾沃瑞特·霍頓 Edward Everett Horton
      阿黛爾·杰金斯 Adele Jergens
      喬治·麥克雷迪 George Macready


◎標  簽 歌舞 | 美國 | 1940s | 美國電影 | 麗塔海華斯 | 麗塔·海華斯 | 1947 | 愛情

◎簡  介

  琪拉(麗塔·海華斯 Rita Hayworth 飾)是天神宙斯的女兒,一天,她違反了天庭條例私自下凡,遇到了郁郁不得志的藝術家丹尼(拉里·帕克斯 Larry Parks 飾)。在琪拉的幫助下,丹尼得以同一名富商會面,富商非常欣賞丹尼的才華,決定資助他開設一家夜總會。
  終于,琪拉向丹尼坦白了自己的真實身份,并且告訴對方,自己很快就要回到天上去了。早已經深深愛上琪拉的丹尼苦苦挽留,而琪拉也早已經動了凡心。夜總會開幕當晚,琪拉帶著自己的姐妹們現身夜總會,造成了轟動,這是琪拉能夠留給丹尼最后的禮物了。琪拉離開后,丹尼非常非常的傷心,他還能有機會與琪拉重逢嗎?
Video
ID : 1
Format : AVC
Format/Info : Advanced Video Codec
Format profile : [email protected]
Format settings : CABAC / 4 Ref Frames
Format settings, CABAC : Yes
Format settings, Reference frames : 4 frames
Codec ID : V_MPEG4/ISO/AVC
Duration : 1 h 40 min
Bit rate mode : Variable
Bit rate : 13.2 Mb/s
Maximum bit rate : 15.0 Mb/s
Width : 1 440 pixels
Height : 1 080 pixels
Display aspect ratio : 4:3
Frame rate mode : Constant
Frame rate : 23.976 (24000/1001) FPS
Color space : YUV
Chroma subsampling : 4:2:0
Bit depth : 8 bits
Scan type : Progressive
Bits/(Pixel*Frame) : 0.355
Stream size : 9.31 GiB (99%)
Writing library : x264 core 148 r2623 d5b2374
Encoding settings : cabac=1 / ref=4 / deblock=1:-1:-1 / analyse=0x3:0x133 / me=umh / subme=9 / psy=1 / psy_rd=1.00:0.15 / mixed_ref=1 / me_range=24 / chroma_me=1 / trellis=2 / 8x8dct=1 / cqm=0 / deadzone=21,11 / fast_pskip=1 / chroma_qp_offset=-3 / threads=34 / lookahead_threads=5 / sliced_threads=0 / nr=150 / decimate=1 / interlaced=0 / bluray_compat=0 / constrained_intra=0 / bframes=8 / b_pyramid=2 / b_adapt=2 / b_bias=0 / direct=3 / weightb=1 / open_gop=0 / weightp=2 / keyint=120 / keyint_min=61 / scenecut=0 / intra_refresh=0 / rc_lookahead=120 / rc=crf / mbtree=1 / crf=18.0 / qcomp=0.60 / qpmin=0 / qpmax=69 / qpstep=4 / vbv_maxrate=15000 / vbv_bufsize=31250 / crf_max=0.0 / nal_hrd=vbr / filler=0 / ip_ratio=1.40 / aq=3:1.00
Language : English
Default : Yes
Forced : No
Color range : Limited
Color primaries : BT.709
Transfer characteristics : BT.709
Matrix coefficients : BT.709

Audio
ID : 2
Format : AC-3
Format/Info : Audio Coding 3
Commercial name : Dolby Digital
Codec ID : A_AC3
Duration : 1 h 40 min
Bit rate mode : Constant
Bit rate : 192 kb/s
Channel(s) : 2 channels
Channel layout : L R
Sampling rate : 48.0 kHz
Frame rate : 31.250 FPS (1536 SPF)
Bit depth : 16 bits
Compression mode : Lossy
Stream size : 138 MiB (1%)
Language : English
Service kind : Complete Main
Default : Yes
Forced : No

Text #1
ID : 3
Format : UTF-8
Codec ID : S_TEXT/UTF8
Codec ID/Info : UTF-8 Plain Text
Duration : 1 h 38 min
Bit rate : 79 b/s
Count of elements : 1899
Stream size : 57.5 KiB (0%)
Language : English
Default : No
Forced : No

Text #2
ID : 4
Format : UTF-8
Codec ID : S_TEXT/UTF8
Codec ID/Info : UTF-8 Plain Text
Duration : 1 h 40 min
Bit rate : 79 b/s
Count of elements : 1960
Stream size : 58.7 KiB (0%)
Title : SDH
Language : English
Default : No
Forced : No





1 個附件 售價 大小 下載 時間

Down.to.Earth.1947.1080p.AMZN.WEBRip.DD2.0.x264-SbR.torrent 0 金幣 95.05K 133 次 1小時前

#1樓
發帖時間:2019-10-12 19:48:58   |   回復數:0
游客組