conanlcg
超級版主

[更 早] [歐美] [劇情] [WEB-1080P] 沙漠突圍戰 Destination.Gobi.1953.1080p.AMZN.WEBRip.AAC2.0.x264-SbR 7.44GB

-->

帖子完整標題:沙漠突圍戰 Destination.Gobi.1953.1080p.AMZN.WEBRip.AAC2.0.x264-SbR 7.44GB




◎譯  名 沙漠突圍戰
◎片  名 Destination Gobi
◎年  代 1953
◎產  地 美國
◎類  別 劇情 / 戰爭
◎語  言 英語
◎上映日期 1953-05-11
◎IMDb評分 6.3/10 from 750 users
◎IMDb鏈接 https://www.imdb.com/title/tt0045682
◎豆瓣評分 0/10 from 0 users
◎豆瓣鏈接 https://movie.douban.com/subject/3003041/
◎片  長 90 分鐘
◎導  演 羅伯特·懷斯 Robert Wise (I)
◎編  劇 Everett Freeman
◎主  演 理查德·威德馬克 Richard Widmark
      Don Taylor
      Max Showalter


◎標  簽 美國 | 二戰 | RobertWise | 間諜 | RichardWidmark | 羅伯特·懷斯 | 1953 | 美國電影

◎簡  介

  講述抗戰期間,一組美國海軍氣象觀測隊在蒙古戈壁被日軍追捕,并逃出升天的故事-真實事件改編
Video
ID : 1
Format : AVC
Format/Info : Advanced Video Codec
Format profile : [email protected]
Format settings : CABAC / 4 Ref Frames
Format settings, CABAC : Yes
Format settings, Reference frames : 4 frames
Codec ID : V_MPEG4/ISO/AVC
Duration : 1 h 29 min
Bit rate mode : Variable
Bit rate : 11.8 Mb/s
Maximum bit rate : 15.0 Mb/s
Width : 1 440 pixels
Height : 1 080 pixels
Display aspect ratio : 4:3
Frame rate mode : Constant
Frame rate : 23.976 (24000/1001) FPS
Color space : YUV
Chroma subsampling : 4:2:0
Bit depth : 8 bits
Scan type : Progressive
Bits/(Pixel*Frame) : 0.315
Stream size : 7.36 GiB (99%)
Writing library : x264 core 148 r2623 d5b2374
Encoding settings : cabac=1 / ref=4 / deblock=1:-1:-1 / analyse=0x3:0x133 / me=umh / subme=9 / psy=1 / psy_rd=1.00:0.15 / mixed_ref=1 / me_range=24 / chroma_me=1 / trellis=2 / 8x8dct=1 / cqm=0 / deadzone=21,11 / fast_pskip=1 / chroma_qp_offset=-3 / threads=34 / lookahead_threads=5 / sliced_threads=0 / nr=150 / decimate=1 / interlaced=0 / bluray_compat=0 / constrained_intra=0 / bframes=8 / b_pyramid=2 / b_adapt=2 / b_bias=0 / direct=3 / weightb=1 / open_gop=0 / weightp=2 / keyint=120 / keyint_min=61 / scenecut=0 / intra_refresh=0 / rc_lookahead=120 / rc=crf / mbtree=1 / crf=18.0 / qcomp=0.60 / qpmin=0 / qpmax=69 / qpstep=4 / vbv_maxrate=15000 / vbv_bufsize=31250 / crf_max=0.0 / nal_hrd=vbr / filler=0 / ip_ratio=1.40 / aq=3:1.00
Default : Yes
Forced : No
Color range : Limited
Color primaries : BT.709
Transfer characteristics : BT.709
Matrix coefficients : BT.709

Audio
ID : 2
Format : AAC LC
Format/Info : Advanced Audio Codec Low Complexity
Codec ID : A_AAC-2
Duration : 1 h 29 min
Bit rate : 125 kb/s
Channel(s) : 2 channels
Channel layout : L R
Sampling rate : 48.0 kHz
Frame rate : 46.875 FPS (1024 SPF)
Compression mode : Lossy
Stream size : 80.4 MiB (1%)
Language : English
Default : Yes
Forced : No

Text
ID : 3
Format : UTF-8
Codec ID : S_TEXT/UTF8
Codec ID/Info : UTF-8 Plain Text
Duration : 1 h 27 min
Bit rate : 68 b/s
Count of elements : 1149
Stream size : 43.9 KiB (0%)
Language : English
Default : No
Forced : No





1 個附件 售價 大小 下載 時間

Destination.Gobi.1953.1080p.AMZN.WEBRip.AAC2.0.x264-SbR.torrent 0 金幣 75.02K 168 次 1小時前

#1樓
發帖時間:2019-10-12 19:50:42   |   回復數:0
游客組