conanlcg
超級版主

[2016] [歐美] [其他] [WEB-1080P] DC超級英雄美少女:年度英雄/DC超級英雄少女:年度英雄 DC.Super.Hero.Girls.Hero.of.the.Year.2016.1080p.AMZ

-->

帖子完整標題:DC超級英雄美少女:年度英雄/DC超級英雄少女:年度英雄 DC.Super.Hero.Girls.Hero.of.the.Year.2016.1080p.AMZN.WEBRip.DDP5.1.x264-Web4HD 2.16GB




◎譯  名 DC超級英雄美少女:年度英雄 / DC超級英雄少女:年度英雄
◎片  名 DC Super Hero Girls: Hero of the Year
◎年  代 2016
◎產  地 美國
◎類  別 動畫
◎語  言 英語
◎上映日期 2016-08-23(美國)
◎IMDb評分 5.6/10 from 515 users
◎IMDb鏈接 https://www.imdb.com/title/tt5836262
◎豆瓣評分 6.1/10 from 73 users
◎豆瓣鏈接 https://movie.douban.com/subject/26830860/
◎片  長 76分鐘
◎導  演 Jenny Coyle
◎編  劇 Shea Fontana
◎主  演 格蕾·德麗斯勒 Grey DeLisle
      Anais Fairweather
      梅·惠特曼 Mae Whitman
      塔拉·斯特朗 Tara Strong
      Teala Dunn
      Stephanie Sheh
      Anna Vocino
      Misty Lee
      伊薇特·尼科爾·布朗 Yvette Nicole Brown
      湯姆·肯尼 Tom Kenny
      Jessica DiCicco


◎標  簽 DC | 美國 | 動畫 | 2016 | 電影 | 漫畫改編 | 美國電影 | 美國動畫

◎簡  介

  一年一度的英雄儀式的時候到了,超級英雄的學生們競相爭取最高獎……
Video
ID : 1
Format : AVC
Format/Info : Advanced Video Codec
Format profile : [email protected]
Format settings : CABAC / 4 Ref Frames
Format settings, CABAC : Yes
Format settings, Reference frames : 4 frames
Codec ID : V_MPEG4/ISO/AVC
Duration : 1 h 16 min
Bit rate mode : Variable
Bit rate : 3 335 kb/s
Maximum bit rate : 15.0 Mb/s
Width : 1 920 pixels
Height : 1 080 pixels
Display aspect ratio : 16:9
Frame rate mode : Constant
Frame rate : 23.976 (24000/1001) FPS
Color space : YUV
Chroma subsampling : 4:2:0
Bit depth : 8 bits
Scan type : Progressive
Bits/(Pixel*Frame) : 0.067
Stream size : 1.78 GiB (82%)
Writing library : x264 core 148 r2623 d5b2374
Encoding settings : cabac=1 / ref=4 / deblock=1:-1:-1 / analyse=0x3:0x133 / me=umh / subme=9 / psy=1 / psy_rd=1.00:0.15 / mixed_ref=1 / me_range=24 / chroma_me=1 / trellis=2 / 8x8dct=1 / cqm=0 / deadzone=21,11 / fast_pskip=1 / chroma_qp_offset=-3 / threads=34 / lookahead_threads=5 / sliced_threads=0 / nr=150 / decimate=1 / interlaced=0 / bluray_compat=0 / constrained_intra=0 / bframes=8 / b_pyramid=2 / b_adapt=2 / b_bias=0 / direct=3 / weightb=1 / open_gop=0 / weightp=2 / keyint=120 / keyint_min=61 / scenecut=0 / intra_refresh=0 / rc_lookahead=120 / rc=crf / mbtree=1 / crf=18.0 / qcomp=0.60 / qpmin=0 / qpmax=69 / qpstep=4 / vbv_maxrate=15000 / vbv_bufsize=31250 / crf_max=0.0 / nal_hrd=vbr / filler=0 / ip_ratio=1.40 / aq=3:1.00
Default : Yes
Forced : No
Color range : Limited
Color primaries : BT.709
Transfer characteristics : BT.709
Matrix coefficients : BT.709

Audio
ID : 2
Format : E-AC-3
Format/Info : Enhanced AC-3
Commercial name : Dolby Digital Plus
Codec ID : A_EAC3
Duration : 1 h 16 min
Bit rate mode : Constant
Bit rate : 640 kb/s
Channel(s) : 6 channels
Channel layout : L R C LFE Ls Rs
Sampling rate : 48.0 kHz
Frame rate : 31.250 FPS (1536 SPF)
Compression mode : Lossy
Stream size : 349 MiB (16%)
Language : English
Service kind : Complete Main
Default : Yes
Forced : No

Text
ID : 3
Format : UTF-8
Codec ID : S_TEXT/UTF8
Codec ID/Info : UTF-8 Plain Text
Language : English
Default : No
Forced : No





1 個附件 售價 大小 下載 時間

DC.Super.Hero.Girls.Hero.of.the.Year.2016.1080p.AMZN.WEBRip.DDP5.1.x264-Web4HD.torrent 0 金幣 43.87K 112 次 1小時前

#1樓
發帖時間:2019-10-12 19:56:11   |   回復數:0
游客組