conanlcg
超級版主

[2017] [歐美] [恐怖] [WEB-1080P] 暗網 Dark.Web.2017.1080p.HULU.WEBRip.AAC2.0.x264-RR 2.71GB

-->

帖子完整標題:暗網 Dark.Web.2017.1080p.HULU.WEBRip.AAC2.0.x264-RR 2.71GB




◎譯  名 暗網
◎片  名 Dark Web
◎年  代 2017
◎產  地 美國
◎類  別 恐怖
◎語  言 英語
◎上映日期 2017-10-17(美國)
◎IMDb評分 3.4/10 from 299 users
◎IMDb鏈接 https://www.imdb.com/title/tt7476416
◎豆瓣評分 4.7/10 from 240 users
◎豆瓣鏈接 https://movie.douban.com/subject/30258531/
◎片  長 72分鐘
◎導  演 Ramsey Attia / Alessandro Frosali / Jill Gevargizian / Daniel B. Iske / Anastase Liaros / Zach Lorkiewicz / Marc Roussel
◎編  劇 Omar Attia / Alessandro Frosali / Eric Havens / Daniel B. Iske / Anastase Liaros / Zach Lorkiewicz / Marc Roussel
◎主  演 Ron Basch
      Karrie Bauman
      Dave Belden
      Mark Booker
      Amber Calderon
      勞倫斯·R·哈維 Laurence R. Harvey
      Neel Kolhatkar
      George Komorowski
      Candice Leask
      Monet Tatianna Lerner
      Julie McCarthy
      Sean Noorani
      Peter Racanelli
      Tristan Risk
      Nakia Secrest
      Sarah Silverthorne


◎標  簽 驚悚 | 恐怖 | 血腥 | 美國 | 不走尋常路 | 美國電影 | 爛片 | 錯看

◎簡  介

  An anthology compiled from short horror films involving the internet.
Video
ID : 1
Format : AVC
Format/Info : Advanced Video Codec
Format profile : [email protected]
Format settings : CABAC / 4 Ref Frames
Format settings, CABAC : Yes
Format settings, Reference frames : 4 frames
Codec ID : V_MPEG4/ISO/AVC
Duration : 1 h 12 min
Bit rate : 5 228 kb/s
Width : 1 920 pixels
Height : 1 080 pixels
Display aspect ratio : 16:9
Frame rate mode : Constant
Frame rate : 23.976 FPS
Color space : YUV
Chroma subsampling : 4:2:0
Bit depth : 8 bits
Scan type : Progressive
Bits/(Pixel*Frame) : 0.105
Stream size : 2.65 GiB (98%)
Language : English
Default : Yes
Forced : No
Color range : Limited
Color primaries : BT.709
Transfer characteristics : BT.709
Matrix coefficients : BT.709

Audio
ID : 2
Format : AAC LC
Format/Info : Advanced Audio Codec Low Complexity
Codec ID : A_AAC-2
Duration : 1 h 12 min
Bit rate : 125 kb/s
Channel(s) : 2 channels
Channel layout : L R
Sampling rate : 48.0 kHz
Frame rate : 46.875 FPS (1024 SPF)
Compression mode : Lossy
Stream size : 64.9 MiB (2%)
Language : English
Default : Yes
Forced : No

Menu
00:00:00.000 : en:1
00:11:36.000 : en:2
00:29:56.000 : en:3
00:46:08.000 : en:4
01:02:13.000 : en:5
01:06:15.000 : en:6





1 個附件 售價 大小 下載 時間

Dark.Web.2017.1080p.HULU.WEBRip.AAC2.0.x264-RR.torrent 0 金幣 54.82K 140 次 1小時前

#1樓
發帖時間:2019-10-12 19:57:58   |   回復數:0
游客組