conanlcg
超級版主

[更 早] [歐美] [劇情] [WEB-1080P] 激情代價/型男索女戀事多 Body.Shots.1999.1080p.AMZN.WEBRip.DDP2.0.x264-KiNGS 5.84GB

-->

帖子完整標題:激情代價/型男索女戀事多 Body.Shots.1999.1080p.AMZN.WEBRip.DDP2.0.x264-KiNGS 5.84GB




◎譯  名 激情代價 / 型男索女戀事多
◎片  名 Body Shots
◎年  代 1999
◎產  地 美國
◎類  別 劇情
◎語  言 英語
◎上映日期 1999-10-07
◎IMDb評分 4.9/10 from 5132 users
◎IMDb鏈接 https://www.imdb.com/title/tt0172627
◎豆瓣評分 5.2/10 from 114 users
◎豆瓣鏈接 https://movie.douban.com/subject/1306462/
◎片  長 106 分鐘
◎導  演 Michael Cristofer
◎編  劇 David McKenna
◎主  演 Tara Reid
      Joe Basile
      Allison Dunbar
      肖恩·派特里克·弗蘭納里 Sean Patrick Flanery


◎標  簽 情色 | 美國 | 激情代價 | 美國電影 | 青春 | 劇情 | 電影 | 看電影

◎簡  介

  故事敘述八名男女在經過一夜的酒精迷醉、溫柔調情、激情音樂、黯淡燈光,肉體搖擺再加上耳鬢廝磨,這八名爛醉的男女在經過一夜的狂歡和酒精的催化後,清醒後卻不記得發生過什麼事,直到大家看到滿身傷痕的莎 ,才知道她可能經歷了一場“約會強暴”。
  所有的人努力回想前一天晚上到底發生了什麼事。珍、莎 、惠尼和艾瑪,他們在高級的洛杉磯酒吧中遇到了瑞克、麥可、夏恩與崔特,他們饑渴地猛灌酒吧中最神奇的酒精“肉體射手”。在酒精、音樂與氣氛的催化下,天雷勾動地火變得如此的輕而易舉,舞池里,年輕男女擺動雙臀,一對對的曠男怨女開始了求偶的儀式,暗暗地進行著“誰會先馳得點”的競賽……
  夜深人靜,熱情未熄,一些男女配對成功了,也有人注定要孤枕難眠,對這四對男女來說,上床之後發生了些什麼事情,他們的印象并不深刻,第二天醒來,只有莎身上的痕隱約訴說著“約會強暴”的罪行,前一天晚上的激情與興奮可以說完全消失殆盡了,歡度一夜的結果,竟是沒有人記得中間的過程……
  db 010707
Video
ID : 2
Format : AVC
Format/Info : Advanced Video Codec
Format profile : [email protected]
Format settings : CABAC / 4 Ref Frames
Format settings, CABAC : Yes
Format settings, Reference frames : 4 frames
Codec ID : V_MPEG4/ISO/AVC
Duration : 1 h 43 min
Bit rate mode : Variable
Bit rate : 7 670 kb/s
Maximum bit rate : 15.0 Mb/s
Width : 1 920 pixels
Height : 816 pixels
Display aspect ratio : 2.35:1
Frame rate mode : Constant
Frame rate : 23.976 (24000/1001) FPS
Color space : YUV
Chroma subsampling : 4:2:0
Bit depth : 8 bits
Scan type : Progressive
Bits/(Pixel*Frame) : 0.204
Stream size : 5.56 GiB (95%)
Writing library : x264 core 148 r2623 d5b2374
Encoding settings : cabac=1 / ref=4 / deblock=1:-1:-1 / analyse=0x3:0x133 / me=umh / subme=9 / psy=1 / psy_rd=1.00:0.15 / mixed_ref=1 / me_range=24 / chroma_me=1 / trellis=2 / 8x8dct=1 / cqm=0 / deadzone=21,11 / fast_pskip=1 / chroma_qp_offset=-3 / threads=25 / lookahead_threads=4 / sliced_threads=0 / nr=150 / decimate=1 / interlaced=0 / bluray_compat=0 / constrained_intra=0 / bframes=8 / b_pyramid=2 / b_adapt=2 / b_bias=0 / direct=3 / weightb=1 / open_gop=0 / weightp=2 / keyint=120 / keyint_min=61 / scenecut=0 / intra_refresh=0 / rc_lookahead=120 / rc=crf / mbtree=1 / crf=18.0 / qcomp=0.60 / qpmin=0 / qpmax=69 / qpstep=4 / vbv_maxrate=15000 / vbv_bufsize=31250 / crf_max=0.0 / nal_hrd=vbr / filler=0 / ip_ratio=1.40 / aq=3:1.00
Language : English
Default : Yes
Forced : No
Color range : Limited
Color primaries : BT.709
Transfer characteristics : BT.709
Matrix coefficients : BT.709

Audio
ID : 1
Format : E-AC-3
Format/Info : Enhanced AC-3
Commercial name : Dolby Digital Plus
Codec ID : A_EAC3
Duration : 1 h 43 min
Bit rate mode : Constant
Bit rate : 224 kb/s
Channel(s) : 2 channels
Channel layout : L R
Sampling rate : 48.0 kHz
Frame rate : 31.250 FPS (1536 SPF)
Compression mode : Lossy
Stream size : 166 MiB (3%)
Language : English
Service kind : Complete Main
Default : Yes
Forced : No

Text
ID : 3
Format : UTF-8
Codec ID : S_TEXT/UTF8
Codec ID/Info : UTF-8 Plain Text
Language : English
Default : No
Forced : No





1 個附件 售價 大小 下載 時間

Body.Shots.1999.1080p.AMZN.WEBRip.DDP2.0.x264-KiNGS.torrent 0 金幣 58.97K 182 次 1小時前

#1樓
發帖時間:2019-10-12 20:00:11   |   回復數:0
游客組