conanlcg
超級版主

[2017] [歐美] [其他] [WEB-1080P] 成為沃倫·巴菲特 Becoming.Warren.Buffet.2017.1080p.AMZN.WEBRip.DD5.1.x264-monkee 2.46GB

-->

帖子完整標題:成為沃倫·巴菲特 Becoming.Warren.Buffet.2017.1080p.AMZN.WEBRip.DD5.1.x264-monkee 2.46GB




◎譯  名 成為沃倫·巴菲特
◎片  名 Becoming Warren Buffett
◎年  代 2017
◎產  地 美國
◎類  別 紀錄片
◎語  言 英語
◎上映日期 2017-01-30(美國)
◎IMDb評分 7.6/10 from 2594 users
◎IMDb鏈接 https://www.imdb.com/title/tt6438096
◎豆瓣評分 8.6/10 from 5245 users
◎豆瓣鏈接 https://movie.douban.com/subject/26966609/
◎片  長 90分鐘
◎導  演 彼得·W·孔哈特 Peter W. Kunhardt / 布瑞恩·奧克斯 Brian Oakes
◎編  劇 克里斯·創 Chris Chuang
◎主  演 沃倫·巴菲特 Warren Buffett
      蘇姍·巴菲特 Susan Buffett
      比爾·蓋茨 Bill Gates


◎標  簽 紀錄片 | 巴菲特 | 傳記 | 金融 | 美國 | 商業 | HBO | 2017

◎簡  介

  身價凈值超過600億美元,沃倫?巴菲特是真正的獨一無二的億萬富翁。這位傳奇般的投資者仍舊住在他位于奧馬哈的小房子里。今年86歲的他,每天都開車去到辦公室管理世界第五大上市公司伯克希爾?哈撒韋公司。但比起他低調的生活方式,更令人驚訝的是他的道德情操。他莊重和正直的人格魅力讓他累積了巨額財富,并在一次史上最大型的慈善活動中,捐出了所有財產。《成為沃倫?巴菲特》這部影片講述了一個來自內布拉斯加洲的小男孩成為世界上最受人尊敬的男人之一的成長史,以及引導他的幕后貴人。影片為獨家拍攝,包含沃倫?巴菲特從未曝光過的家庭影像,沃倫?巴菲特將帶領大家思考,當金錢不再有意義時,什么才是最重要的?
  With a net worth of over $60,000,000,000, Warren Buffett is truly a one-of-a-kind billionaire. The legendary investor still lives in his modest home in Omaha. At 86 years old, he drives to the office every morning to manage Berkshire Hathaway, the fifth largest public company in the world. But more surprising than his humble lifestyle is his moral core. The same principles of decency and integrity that helped him pile up a fortune led him to give it all away in the largest philanthropic donation in history. Becoming Warren Buffett chronicles the evolution of a boy from Nebraska who became one of the most respected men in the world, and the heroes who helped guide him along the way. By allowing access to his life and never-before-released home videos, Buffett offers a glimpse into his unique mind to help us understand what is truly important when money no longer has meaning.
Video
ID : 1
Format : AVC
Format/Info : Advanced Video Codec
Format profile : [email protected]
Format settings : CABAC / 4 Ref Frames
Format settings, CABAC : Yes
Format settings, Reference frames : 4 frames
Codec ID : V_MPEG4/ISO/AVC
Duration : 1 h 28 min
Bit rate mode : Variable
Bit rate : 3 514 kb/s
Maximum bit rate : 4 510 kb/s
Width : 1 920 pixels
Height : 1 080 pixels
Display aspect ratio : 16:9
Frame rate mode : Constant
Frame rate : 23.976 (24000/1001) FPS
Color space : YUV
Chroma subsampling : 4:2:0
Bit depth : 8 bits
Scan type : Progressive
Bits/(Pixel*Frame) : 0.071
Stream size : 2.17 GiB (88%)
Default : Yes
Forced : No

Audio
ID : 2
Format : AC-3
Format/Info : Audio Coding 3
Commercial name : Dolby Digital
Codec ID : A_AC3
Duration : 1 h 28 min
Bit rate mode : Constant
Bit rate : 384 kb/s
Channel(s) : 6 channels
Channel layout : L R C LFE Ls Rs
Sampling rate : 48.0 kHz
Frame rate : 31.250 FPS (1536 SPF)
Bit depth : 16 bits
Compression mode : Lossy
Stream size : 243 MiB (10%)
Language : English
Service kind : Complete Main
Default : Yes
Forced : No

Text
ID : 3
Format : UTF-8
Codec ID : S_TEXT/UTF8
Codec ID/Info : UTF-8 Plain Text
Language : English
Default : No
Forced : No





1 個附件 售價 大小 下載 時間

Becoming.Warren.Buffet.2017.1080p.AMZN.WEBRip.DD5.1.x264-monkee.torrent 0 金幣 49.86K 336 次 1小時前

#1樓
發帖時間:2019-10-12 20:02:12   |   回復數:0
游客組