conanlcg
超級版主

[2015] [其他] [劇情] [BD-1080P] 你家附近 At.your.Doorstep.2016.SPANISH.1080p.BluRay.x264.DD5.1-EPiC 11.46GB

-->

帖子完整標題:你家附近 At.your.Doorstep.2016.SPANISH.1080p.BluRay.x264.DD5.1-EPiC 11.46GB




◎譯  名 你家附近
◎片  名 Cerca de tu casa
◎年  代 2015
◎產  地 西班牙
◎類  別 劇情 / 歌舞
◎語  言 西班牙語
◎IMDb評分 6.2/10 from 288 users
◎IMDb鏈接 https://www.imdb.com/title/tt4378066
◎豆瓣評分 0/10 from 0 users
◎豆瓣鏈接 https://movie.douban.com/subject/26329178/
◎導  演 Eduard Cortés
◎編  劇 Eduard Cortés
◎主  演 Sílvia Pérez Cruz
      Adriana Ozores
      Lluís Homar


◎標  簽 西班牙 | 『影』 | ?配樂 | SPC | MVB | BDMV | <牙> | 2016

◎簡  介

  After losing their home because they can not afford it, a young married couple with a daughter of 10 years, but that housing will also be threatened by the seizure of the bank.

◎獲獎情況

  第31屆西班牙戈雅獎(2017)
  最佳新人女演員(提名) 西爾維婭·佩雷斯·克魯茲
  最佳原創歌曲 西爾維婭·佩雷斯·克魯茲
Video
ID : 1
Format : AVC
Format/Info : Advanced Video Codec
Format profile : [email protected]
Format settings : CABAC / 5 Ref Frames
Format settings, CABAC : Yes
Format settings, Reference frames : 5 frames
Codec ID : V_MPEG4/ISO/AVC
Duration : 1 h 35 min
Bit rate : 16.5 Mb/s
Width : 1 920 pixels
Height : 804 pixels
Display aspect ratio : 2.40:1
Frame rate mode : Constant
Frame rate : 24.000 FPS
Color space : YUV
Chroma subsampling : 4:2:0
Bit depth : 8 bits
Scan type : Progressive
Bits/(Pixel*Frame) : 0.446
Stream size : 11.0 GiB (96%)
Writing library : x264 core 148 r2744kMod b97ae06
Encoding settings : cabac=1 / ref=5 / deblock=1:-3:-3 / analyse=0x3:0x133 / me=tesa / subme=11 / psy=1 / fade_compensate=0.00 / psy_rd=0.90:0.00 / mixed_ref=1 / me_range=32 / chroma_me=1 / trellis=2 / 8x8dct=1 / cqm=0 / deadzone=21,11 / fast_pskip=0 / chroma_qp_offset=-2 / threads=25 / lookahead_threads=4 / sliced_threads=0 / nr=0 / decimate=0 / interlaced=0 / bluray_compat=0 / constrained_intra=0 / bframes=8 / b_pyramid=2 / b_adapt=2 / b_bias=0 / direct=3 / weightb=1 / open_gop=0 / weightp=2 / keyint=250 / keyint_min=24 / scenecut=40 / intra_refresh=0 / rc_lookahead=60 / rc=crf / mbtree=0 / crf=16.5000 / qcomp=0.60 / qpmin=0 / qpmax=69 / qpstep=4 / vbv_maxrate=40000 / vbv_bufsize=30000 / crf_max=0.0 / nal_hrd=none / filler=0 / ip_ratio=1.40 / pb_ratio=1.30 / aq=1:0.90
Language : English
Default : Yes
Forced : No

Audio
ID : 2
Format : AC-3
Format/Info : Audio Coding 3
Commercial name : Dolby Digital
Codec ID : A_AC3
Duration : 1 h 35 min
Bit rate mode : Constant
Bit rate : 640 kb/s
Channel(s) : 6 channels
Channel layout : L R C LFE Ls Rs
Sampling rate : 48.0 kHz
Frame rate : 31.250 FPS (1536 SPF)
Bit depth : 16 bits
Compression mode : Lossy
Stream size : 438 MiB (4%)
Language : Spanish
Service kind : Complete Main
Default : Yes
Forced : No

Text
ID : 3
Format : UTF-8
Codec ID : S_TEXT/UTF8
Codec ID/Info : UTF-8 Plain Text
Duration : 1 h 31 min
Bit rate : 45 b/s
Count of elements : 1137
Stream size : 30.3 KiB (0%)
Language : English
Default : Yes
Forced : No

Menu
00:00:00.000 : en:00:00:00.000
00:07:51.333 : en:00:07:51.333
00:14:44.667 : en:00:14:44.667
00:23:20.833 : en:00:23:20.833
00:32:15.917 : en:00:32:15.917
00:40:49.375 : en:00:40:49.375
00:47:15.542 : en:00:47:15.542
00:55:55.542 : en:00:55:55.542
01:04:18.750 : en:01:04:18.750
01:12:34.167 : en:01:12:34.167
01:18:26.125 : en:01:18:26.125
01:26:48.208 : en:01:26:48.208





1 個附件 售價 大小 下載 時間

At.your.Doorstep.2016.SPANISH.1080p.BluRay.x264.DD5.1-EPiC.torrent 0 金幣 57.84K 70 次 30分鐘前

#1樓
發帖時間:2019-10-12 20:57:18   |   回復數:0
游客組