conanlcg
超級版主

[2016] [其他] [其他] [BD-1080P] 大唐玄奘 Xuan.Zang.2016.CHINESE.1080p.BluRay.x264.DTS-EPiC 9.89GB

-->

帖子完整標題:大唐玄奘 Xuan.Zang.2016.CHINESE.1080p.BluRay.x264.DTS-EPiC 9.89GB




◎譯  名 Xuan Zang
◎片  名 大唐玄奘
◎年  代 2016
◎產  地 中國大陸
◎類  別 歷史
◎語  言 漢語普通話
◎上映日期 2016-04-29(中國大陸)
◎IMDb評分 5.9/10 from 270 users
◎IMDb鏈接 https://www.imdb.com/title/tt5684550
◎豆瓣評分 5.3/10 from 20742 users
◎豆瓣鏈接 https://movie.douban.com/subject/26389697/
◎片  長 120分鐘
◎導  演 霍建起 Jianqi Huo
◎編  劇 鄒靜之 Jingzhi Zou
◎主  演 黃曉明 Xiaoming Huang
      徐崢 Zheng Xu
      蒲巴甲 Purba Rgyal
      羅晉 Jin Luo
      湯鎮業 Ken Tong
      錦榮 Vivian Dawson
      譚凱 Kai Tan
      姜超 Chao Jiang
      趙亮 Liang Zhao
      車曉 Xiao Che
      樓佳悅 Artemis
      趙文瑄 Winston Chao


◎標  簽 宗教 | 歷史 | 中國 | 2016 | 史實改編 | 宗教哲思 | 大陸 | 佛教

◎簡  介

  影片講述歷史上的唐朝高僧玄奘歷時17年,不畏艱難險阻,前往天竺取經的傳奇故事。大唐貞觀盛世,年輕的玄奘法師(黃曉明 飾)為求佛法真諦冒死偷渡出境,一路上遭遇千難萬阻,天災人禍,卻也深得民間疾苦。官兵圍堵、徒弟背叛、埋身沙海、斷水絕糧,玄奘法師一心求法,最終抵達印度,在印度弘揚善念靜心修佛,等到從無遮大會辯論成功回國之時,已經是年逾五十的老人了。

◎獲獎情況

  第19屆上海國際電影節(2016)
  電影頻道傳媒大獎 媒體關注影片

  第31屆中國電影金雞獎(2017)
  最佳攝影(提名) 孫明
  最佳美術(提名) 武明
  最佳音樂(提名) 王曉鋒
  最佳錄音(提名) 晁軍

  第17屆中國電影華表獎(2018)
  優秀故事片獎
  優秀電影音樂獎
  優秀攝影 (提名) 孫明

  第13屆中國長春電影節(2016)
  金鹿獎 最佳華語故事片 霍建起
  金鹿獎 最佳男主角 黃曉明
  金鹿獎 最佳攝影 孫明
Video
ID : 1
Format : AVC
Format/Info : Advanced Video Codec
Format profile : [email protected]
Format settings : CABAC / 5 Ref Frames
Format settings, CABAC : Yes
Format settings, Reference frames : 5 frames
Codec ID : V_MPEG4/ISO/AVC
Duration : 1 h 59 min
Bit rate : 10.3 Mb/s
Width : 1 920 pixels
Height : 722 pixels
Display aspect ratio : 2.659
Frame rate mode : Constant
Frame rate : 24.000 FPS
Color space : YUV
Chroma subsampling : 4:2:0
Bit depth : 8 bits
Scan type : Progressive
Bits/(Pixel*Frame) : 0.310
Stream size : 8.63 GiB (87%)
Writing library : x264 core 148 r2705kMod 3f5ed56
Encoding settings : cabac=1 / ref=5 / deblock=1:-3:-3 / analyse=0x3:0x133 / me=umh / subme=11 / psy=1 / fade_compensate=0.00 / psy_rd=0.90:0.00 / mixed_ref=1 / me_range=32 / chroma_me=1 / trellis=2 / 8x8dct=1 / cqm=0 / deadzone=21,11 / fast_pskip=0 / chroma_qp_offset=-2 / threads=12 / lookahead_threads=2 / sliced_threads=0 / nr=0 / decimate=0 / interlaced=0 / bluray_compat=0 / constrained_intra=0 / fgo=0 / bframes=8 / b_pyramid=2 / b_adapt=2 / b_bias=0 / direct=3 / weightb=1 / open_gop=0 / weightp=2 / keyint=240 / keyint_min=24 / scenecut=40 / intra_refresh=0 / rc_lookahead=60 / rc=crf / mbtree=0 / crf=15.8000 / qcomp=0.60 / qpmin=0 / qpmax=69 / qpstep=4 / vbv_maxrate=40000 / vbv_bufsize=30000 / crf_max=0.0 / nal_hrd=none / filler=0 / ip_ratio=1.40 / pb_ratio=1.30 / aq=1:0.90
Language : Chinese
Default : Yes
Forced : No

Audio
ID : 2
Format : DTS
Format/Info : Digital Theater Systems
Codec ID : A_DTS
Duration : 1 h 59 min
Bit rate mode : Constant
Bit rate : 1 509 kb/s
Channel(s) : 6 channels
Channel layout : C L R Ls Rs LFE
Sampling rate : 48.0 kHz
Frame rate : 93.750 FPS (512 SPF)
Bit depth : 16 bits
Compression mode : Lossy
Stream size : 1.26 GiB (13%)
Language : Chinese
Default : Yes
Forced : No

Text
ID : 3
Format : UTF-8
Codec ID : S_TEXT/UTF8
Codec ID/Info : UTF-8 Plain Text
Duration : 1 h 46 min
Bit rate : 30 b/s
Count of elements : 845
Stream size : 23.5 KiB (0%)
Language : English
Default : Yes
Forced : No

Menu
00:00:00.000 : en:00:00:00.000
00:08:04.833 : en:00:08:04.833
00:15:27.208 : en:00:15:27.208
00:23:49.708 : en:00:23:49.708
00:32:56.917 : en:00:32:56.917
00:40:40.917 : en:00:40:40.917
00:56:05.167 : en:00:56:05.167
01:05:30.292 : en:01:05:30.292
01:20:09.167 : en:01:20:09.167
01:31:05.042 : en:01:31:05.042
01:45:01.208 : en:01:45:01.208
01:52:53.208 : en:01:52:53.208





1 個附件 售價 大小 下載 時間

Xuan.Zang.2016.CHINESE.1080p.BluRay.x264.DTS-EPiC.torrent 0 金幣 49.99K 119 次 23分鐘前

#1樓
發帖時間:2019-10-12 20:59:34   |   回復數:1
tanchoohoon
武林盟主
感謝樓主的無私分享
5分鐘前 #2樓
游客組