conanlcg
超級版主

[2014] [泰國] [驚悚] [BD-1080P] 加班遇到鬼 O.T.The.Movie.2014.THAI.1080p.BluRay.x264.DTS-EPiC 10.43GB

-->

帖子完整標題:加班遇到鬼 O.T.The.Movie.2014.THAI.1080p.BluRay.x264.DTS-EPiC 10.43GB




◎譯  名 加班遇到鬼 / O.T. phi Overtime / ??.??. ?????????????
◎片  名 O.T. ?? OVERTIME
◎年  代 2014
◎產  地 泰國
◎類  別 驚悚
◎語  言 泰語
◎上映日期 2014-10-23(泰國)
◎IMDb評分 5.8/10 from 142 users
◎IMDb鏈接 http://www.imdb.com/title/tt3995504
◎豆瓣評分 5.6/10 from 1042 users
◎豆瓣鏈接 https://movie.douban.com/subject/25905773/
◎片  長 103分鐘
◎導  演 Isara Nadee
◎主  演 查克利·彥納姆 Shahkrit Yamnarm
      雷·麥克唐納 Ray MacDonald
      阿南達·愛華靈咸 Ananda Everingham
      Fon Nalinthip
      Gun Nuttanun
      Sudthasit Podthasak
      Petei Hokari
      Suam Sukhapat


◎標  簽 恐怖 | 泰國 | 喜劇 | 驚悚 | 泰國電影 | 搞笑 | 2014 | 加班遇到鬼

◎簡  介

  當年阿迪和凱仁兩個搞怪老板用靈異事件嚇唬加班騙錢的員工,最終導致阿波和小螢意外身亡。事后凱仁重傷住院,阿迪遭受巨大的陰影,她們共同的好友阿丁則暫時打理公司的業務。雖然小螢的鬼魂至今徘徊在公司大樓內,可是新來的阿丁似乎決然不吸取教訓,繼續和阿迪嚇唬著手下的員工。某天,他們的老同學阿譚和安找上門來,要求該公司為他們策劃一場創意無限的婚禮。可是由于當年的一段往事,安又極度憎恨阿迪,似乎想借此機會報仇。
  為了扭轉公司的困境,二人接手這項業務,并且準備在一座傳說中鬧鬼的旅館內舉行典禮。鬼影幢幢的夜晚,意外接二連三……
Video
ID : 1
Format : AVC
Format/Info : Advanced Video Codec
Format profile : [email protected]
Format settings : CABAC / 4 Ref Frames
Format settings, CABAC : Yes
Format settings, Reference frames : 4 frames
Codec ID : V_MPEG4/ISO/AVC
Duration : 1 h 42 min
Bit rate : 13.0 Mb/s
Width : 1 920 pixels
Height : 1 036 pixels
Display aspect ratio : 1.85:1
Frame rate mode : Constant
Frame rate : 24.000 FPS
Color space : YUV
Chroma subsampling : 4:2:0
Bit depth : 8 bits
Scan type : Progressive
Bits/(Pixel*Frame) : 0.272
Stream size : 9.34 GiB (90%)
Writing library : x264 core 142 r2409+42 04be48a tMod [[email protected] X86_64]
Encoding settings : cabac=1 / ref=4 / deblock=1:-3:-3 / analyse=0x3:0x133 / me=umh / subme=11 / psy=1 / fade_compensate=0.00 / psy_rd=1.00:0.15 / mixed_ref=1 / me_range=24 / chroma_me=1 / trellis=2 / 8x8dct=1 / cqm=0 / deadzone=21,11 / fast_pskip=1 / chroma_qp_offset=-3 / threads=12 / lookahead_threads=2 / sliced_threads=0 / nr=0 / decimate=1 / interlaced=0 / bluray_compat=0 / constrained_intra=0 / fgo=0 / bframes=8 / b_pyramid=2 / b_adapt=2 / b_bias=0 / direct=3 / weightb=1 / open_gop=0 / weightp=2 / keyint=240 / keyint_min=24 / scenecut=40 / intra_refresh=0 / rc_lookahead=60 / rc=2pass / mbtree=1 / bitrate=13000 / ratetol=1.0 / qcomp=0.60 / qpmin=10:10:10 / qpmax=51:51:51 / qpstep=4 / cplxblur=20.0 / qblur=0.5 / vbv_maxrate=40000 / vbv_bufsize=30000 / nal_hrd=none / filler=0 / ip_ratio=1.40 / aq=1:1.00 / aq-sensitivity=10.00 / aq-factor=1.00:1.00:1.00 / aq2=0 / aq3=0
Language : Thai
Default : Yes
Forced : No

Audio
ID : 2
Format : DTS
Format/Info : Digital Theater Systems
Codec ID : A_DTS
Duration : 1 h 42 min
Bit rate mode : Constant
Bit rate : 1 509 kb/s
Channel(s) : 6 channels
Channel layout : C L R Ls Rs LFE
Sampling rate : 48.0 kHz
Frame rate : 93.750 FPS (512 SPF)
Bit depth : 16 bits
Compression mode : Lossy
Stream size : 1.09 GiB (10%)
Language : Thai
Default : Yes
Forced : No

Text
ID : 3
Format : UTF-8
Codec ID : S_TEXT/UTF8
Codec ID/Info : UTF-8 Plain Text
Duration : 1 h 38 min
Bit rate : 42 b/s
Count of elements : 1493
Stream size : 30.6 KiB (0%)
Language : English
Default : Yes
Forced : No

Menu
00:00:00.000 : en:Chapter 01
00:08:07.333 : en:Chapter 02
00:16:39.750 : en:Chapter 03
00:24:42.041 : en:Chapter 04
00:33:25.375 : en:Chapter 05
00:42:41.791 : en:Chapter 06
00:50:48.958 : en:Chapter 07
01:00:10.333 : en:Chapter 08
01:07:29.125 : en:Chapter 09
01:16:34.333 : en:Chapter 10
01:27:35.416 : en:Chapter 11
01:36:24.750 : en:Chapter 12
01:42:56.000 : en:Chapter 13





1 個附件 售價 大小 下載 時間

O.T.The.Movie.2014.THAI.1080p.BluRay.x264.DTS-EPiC.torrent 0 金幣 52.67K 28 次 22分鐘前

#1樓
發帖時間:2019-10-12 21:03:11   |   回復數:1
xiaowen0320
武林高手
小故事的后續,還是可以看
19分鐘前 #2樓
游客組