conanlcg
超級版主

[2010] [其他] [劇情] [BD-1080P] 艋舺 Monga.2010.CHINESE.1080p.BluRay.x264.DTS-EPiC 16.68GB

-->

帖子完整標題:艋舺 Monga.2010.CHINESE.1080p.BluRay.x264.DTS-EPiC 16.68GB




◎譯  名 Báng-kah / Meng Xia / Monga
◎片  名 艋舺
◎年  代 2010
◎產  地 中國臺灣
◎類  別 劇情 / 動作 / 犯罪
◎語  言 閩南語 / 漢語普通話
◎上映日期 2010-02-05
◎IMDb評分 6.9/10 from 2478 users
◎IMDb鏈接 https://www.imdb.com/title/tt1604900
◎豆瓣評分 7.7/10 from 230468 users
◎豆瓣鏈接 https://movie.douban.com/subject/3737102/
◎片  長 140 分鐘
◎導  演 鈕承澤 Doze Niu
◎編  劇 鈕承澤 Doze Niu / 曾莉婷 Tseng Li-ting
◎主  演 趙又廷 Mark
      阮經天 Ching-Tien Juan
      鳳小岳 Rhydian Vaughan
      黃鐙輝 Huang Teng-Hui
      陳漢典 Han Dian Chen
      柯佳嬿 Alice Ko
      馬如龍 Ju-Lung Ma
      蔡昌憲 Chang-Hsien Tsai
      鈕承澤 Doze Niu
      席曼寧 Man-Ning Si(Li Shuk Fan)


◎標  簽 臺灣 | 青春 | 黑幫 | 成長 | 暴力 | 2010 | 文藝 | 劇情

◎簡  介

  蚊子(趙又廷 飾)17歲那年搬到艋舺,因為一根雞腿踏入了黑道,認識了和尚(阮經天 飾)、志龍、阿伯還有白猴四個好兄弟,五人結為太子幫。太子幫秉持只識意氣,不問意義的精神,憑借志龍的父親Geta(馬如龍 飾)的黑道地位在學校呼風喚雨。踏入黑道就意味著要經歷腥風血雨,然而和尚作為眾人的守護神總能幫他們化解危機。艋舺傳統的黑道秩序遭受著現代文明的威脅,外省人灰狼(鈕承澤 飾)要求和艋舺的老大們合作遭到拒絕。此時,和尚由于得知父輩們之間的事情對Geta心懷不滿,加之文謙的慫恿而卷入一場陰謀。艋舺局勢暗潮洶涌、殺機四伏,五兄弟在黑道與友情的決擇中,演繹了一段關于青春的悲情故事。
  導演鈕承澤稱《艋舺》是“生猛又華麗的青春動作片”。本片于2010年春節檔在臺灣上映,首周票房達6000萬新臺幣,刷新了臺灣本土電影的首周票房紀錄。

◎獲獎情況

  第47屆臺北金馬影展(2010)
  金馬獎 最佳男主角 阮經天
  金馬獎 最佳美術設計(提名) 黃美清 / 陳柏任
  金馬獎 最佳原創配樂(提名) 陳珊妮
  金馬獎 最佳音效 杜篤之

  第30屆香港電影金像獎(2011)
  最佳亞洲電影(提名)

  第5屆亞洲電影大獎(2011)
  我最喜愛的男女主角 我最喜愛的男主角(提名) 阮經天
  最佳男主角(提名) 阮經天
  最佳新演員 趙又廷
  最佳攝影(提名) 包軒鳴
  最佳原創音樂(提名) 陳珊妮
  最佳美術指導(提名) 黃美清 / 陳柏任

  第11屆華語電影傳媒大獎(2011)
  百家傳媒年度致敬電影(提名)
  最佳電影(提名)
  最佳導演(提名) 鈕承澤
  最佳男配角 馬如龍
  最佳新導演 鈕承澤
  最佳新演員(提名) 趙又廷
Video
ID : 1
Format : AVC
Format/Info : Advanced Video Codec
Format profile : [email protected]
Format settings : CABAC / 5 Ref Frames
Format settings, CABAC : Yes
Format settings, Reference frames : 5 frames
Codec ID : V_MPEG4/ISO/AVC
Duration : 2 h 20 min
Bit rate : 15.5 Mb/s
Width : 1 920 pixels
Height : 816 pixels
Display aspect ratio : 2.35:1
Frame rate mode : Constant
Frame rate : 24.000 FPS
Color space : YUV
Chroma subsampling : 4:2:0
Bit depth : 8 bits
Scan type : Progressive
Bits/(Pixel*Frame) : 0.411
Stream size : 15.2 GiB (91%)
Writing library : x264 core 142 r2431+42 c69a006 tMod [[email protected] X86_64]
Encoding settings : cabac=1 / ref=5 / deblock=1:-3:-3 / analyse=0x3:0x133 / me=umh / subme=11 / psy=1 / fade_compensate=0.00 / psy_rd=0.90:0.00 / mixed_ref=1 / me_range=32 / chroma_me=1 / trellis=2 / 8x8dct=1 / cqm=0 / deadzone=21,11 / fast_pskip=0 / chroma_qp_offset=-2 / threads=12 / lookahead_threads=2 / sliced_threads=0 / nr=0 / decimate=0 / interlaced=0 / bluray_compat=0 / constrained_intra=0 / fgo=0 / bframes=8 / b_pyramid=2 / b_adapt=2 / b_bias=0 / direct=3 / weightb=1 / open_gop=0 / weightp=2 / keyint=240 / keyint_min=24 / scenecut=40 / intra_refresh=0 / rc_lookahead=60 / rc=crf / mbtree=0 / crf=17.0000 / qcomp=0.60 / qpmin=0:0:0 / qpmax=69:69:69 / qpstep=4 / vbv_maxrate=40000 / vbv_bufsize=30000 / crf_max=0.0 / nal_hrd=none / filler=0 / ip_ratio=1.40 / pb_ratio=1.30 / aq=1:0.90 / aq-sensitivity=10.00 / aq-factor=1.00:1.00:1.00 / aq2=0 / aq3=0
Language : Chinese
Default : Yes
Forced : No

Audio
ID : 2
Format : DTS
Format/Info : Digital Theater Systems
Codec ID : A_DTS
Duration : 2 h 20 min
Bit rate mode : Constant
Bit rate : 1 509 kb/s
Channel(s) : 6 channels
Channel layout : C L R Ls Rs LFE
Sampling rate : 48.0 kHz
Frame rate : 93.750 FPS (512 SPF)
Bit depth : 16 bits
Compression mode : Lossy
Stream size : 1.48 GiB (9%)
Language : Chinese
Default : Yes
Forced : No

Text
ID : 3
Format : UTF-8
Codec ID : S_TEXT/UTF8
Codec ID/Info : UTF-8 Plain Text
Duration : 2 h 15 min
Bit rate : 36 b/s
Count of elements : 1363
Stream size : 36.1 KiB (0%)
Language : English
Default : Yes
Forced : No

Menu
00:00:00.000 : en:00:00:00.000
00:09:32.958 : en:00:09:32.958
00:21:19.083 : en:00:21:19.083
00:27:13.625 : en:00:27:13.625
00:35:20.708 : en:00:35:20.708
00:45:55.417 : en:00:45:55.417
00:53:15.583 : en:00:53:15.583
01:03:11.583 : en:01:03:11.583
01:13:04.000 : en:01:13:04.000
01:21:20.917 : en:01:21:20.917
01:30:27.208 : en:01:30:27.208
01:39:49.250 : en:01:39:49.250
01:43:57.208 : en:01:43:57.208
01:58:53.458 : en:01:58:53.458
02:16:12.792 : en:02:16:12.792





1 個附件 售價 大小 下載 時間

Monga.2010.CHINESE.1080p.BluRay.x264.DTS-EPiC.torrent 0 金幣 83.91K 56 次 18分鐘前

#1樓
發帖時間:2019-10-12 21:05:08   |   回復數:1
tanchoohoon
武林盟主
感謝樓主的無私分享
6分鐘前 #2樓
游客組