conanlcg
超級版主

[2015] [日本] [其他] [BD-1080P] 和諧 Harmony.2015.JAPANESE.1080p.BluRay.x264.DTS-EPiC 8.67GB

-->

帖子完整標題:和諧 Harmony.2015.JAPANESE.1080p.BluRay.x264.DTS-EPiC 8.67GB




◎譯  名 和諧 / Harmony / Harmony: Project Itoh
◎片  名 ハーモニー
◎年  代 2015
◎產  地 日本
◎類  別 動畫
◎語  言 日語
◎上映日期 2015-11-13(日本)
◎IMDb評分 6.2/10 from 655 users
◎IMDb鏈接 https://www.imdb.com/title/tt3615204
◎豆瓣評分 7.1/10 from 2357 users
◎豆瓣鏈接 https://movie.douban.com/subject/25850802/
◎片  長 120分鐘
◎導  演 中村孝 Takashi Nakamura / 邁克爾·艾里亞斯 Michael Arias
◎編  劇 伊藤計劃 Project Itoh / 山本幸治
◎主  演 澤城美雪 Miyuki Sawashiro
      上田麗奈 Reina Ueda
      洲崎綾 Aya Suzaki
      榊原良子 Yoshiko Sakakibara
      三木真一郎 Shinichir? Miki
      森田順平 Junpei Morita
      長島雄一 Y?ichi Nagashima
      渡邊明乃 Akeno Watanabe
      斧敦 Ono Atsushi
      森千晃
      藤田宗久
      佐佐木敏
      竹本純平
      田原正治
      石井未紗
      花田光 Hikaru Hanada
      藤井隼
      內野孝聰
      東宮那奈
      千葉進步 Susumu Chiba
      伊東健人 Kento Itou
      山下誠一郎 Seiichiro Yamashita
      祐仙勇
      大塚明夫 Akio ?tsuka


◎標  簽 動畫 | 科幻 | 伊藤計劃 | 日本 | 日本動畫 | 劇場版 | 反烏托邦 | 2015

◎簡  介

  故事發生在二十一世紀初年,一場浩大的災難讓“生府”取代了原有政府,成為了國家最高領導組織。經過死亡的洗禮,人們開始格外重視生命的重要性,于是,政務在居民們體內植入了“WatchMe”設備,以檢測和介入他們的健康狀況,這也就意味著,身體不再是屬于個人的所有物,而是被列入了國家管理的范疇,自殺更是無可饒恕的重罪。
  霧慧圖安(澤城美雪 配音)、御冷彌迦(上田麗奈 配音)和零下堂吉安(洲崎綾 配音)是三位對現存制度產生了疑慮的少女,在彌迦的帶領下,她們準備自殺以挑戰制度,可是最終彌迦死了,計劃失敗。一晃眼多年過去,霧慧和吉安重逢,與此同時,全國各地發生了數千起集體自殺的案件,而這背后的真相和彌迦當年的死有著千絲萬縷的關聯。
Video
ID : 1
Format : AVC
Format/Info : Advanced Video Codec
Format profile : [email protected]
Format settings : CABAC / 4 Ref Frames
Format settings, CABAC : Yes
Format settings, Reference frames : 4 frames
Codec ID : V_MPEG4/ISO/AVC
Duration : 1 h 59 min
Bit rate : 8 876 kb/s
Width : 1 920 pixels
Height : 1 080 pixels
Display aspect ratio : 16:9
Frame rate mode : Constant
Frame rate : 23.976 (24000/1001) FPS
Color space : YUV
Chroma subsampling : 4:2:0
Bit depth : 8 bits
Scan type : Progressive
Bits/(Pixel*Frame) : 0.179
Stream size : 7.41 GiB (85%)
Writing library : x264 core 148 r2705kMod 3f5ed56
Encoding settings : cabac=1 / ref=4 / deblock=1:-1:-1 / analyse=0x3:0x133 / me=umh / subme=11 / psy=1 / fade_compensate=0.00 / psy_rd=0.40:0.00 / mixed_ref=1 / me_range=32 / chroma_me=1 / trellis=2 / 8x8dct=1 / cqm=0 / deadzone=21,11 / fast_pskip=0 / chroma_qp_offset=-2 / threads=12 / lookahead_threads=2 / sliced_threads=0 / nr=0 / decimate=0 / interlaced=0 / bluray_compat=0 / constrained_intra=0 / fgo=0 / bframes=8 / b_pyramid=2 / b_adapt=2 / b_bias=0 / direct=3 / weightb=1 / open_gop=0 / weightp=2 / keyint=240 / keyint_min=23 / scenecut=40 / intra_refresh=0 / rc_lookahead=60 / rc=crf / mbtree=0 / crf=15.3000 / qcomp=0.60 / qpmin=0 / qpmax=69 / qpstep=4 / vbv_maxrate=40000 / vbv_bufsize=30000 / crf_max=0.0 / nal_hrd=none / filler=0 / ip_ratio=1.40 / pb_ratio=1.30 / aq=1:0.60
Language : Japanese
Default : Yes
Forced : No

Audio
ID : 2
Format : DTS
Format/Info : Digital Theater Systems
Codec ID : A_DTS
Duration : 1 h 59 min
Bit rate mode : Constant
Bit rate : 1 509 kb/s
Channel(s) : 6 channels
Channel layout : C L R Ls Rs LFE
Sampling rate : 48.0 kHz
Frame rate : 93.750 FPS (512 SPF)
Bit depth : 24 bits
Compression mode : Lossy
Stream size : 1.26 GiB (15%)
Language : Japanese
Default : Yes
Forced : No

Text
ID : 3
Format : UTF-8
Codec ID : S_TEXT/UTF8
Codec ID/Info : UTF-8 Plain Text
Duration : 1 h 52 min
Bit rate : 59 b/s
Count of elements : 1442
Stream size : 48.8 KiB (0%)
Language : English
Default : Yes
Forced : No

Menu
00:00:00.000 : en:00:00:00.000
00:01:56.116 : en:00:01:56.116
00:08:12.450 : en:00:08:12.450
00:09:43.500 : en:00:09:43.500
00:12:06.100 : en:00:12:06.100
00:15:59.041 : en:00:15:59.041
00:19:50.981 : en:00:19:50.981
00:22:32.935 : en:00:22:32.935
00:27:43.120 : en:00:27:43.120
00:33:36.181 : en:00:33:36.181
00:37:58.234 : en:00:37:58.234
00:40:09.782 : en:00:40:09.782
00:46:17.525 : en:00:46:17.525
00:50:57.054 : en:00:50:57.054
00:57:47.172 : en:00:57:47.172
01:03:22.173 : en:01:03:22.173
01:07:46.271 : en:01:07:46.271
01:10:06.786 : en:01:10:06.786
01:14:21.582 : en:01:14:21.582
01:19:36.063 : en:01:19:36.063
01:24:58.302 : en:01:24:58.302
01:28:10.202 : en:01:28:10.202
01:33:47.831 : en:01:33:47.831
01:39:45.563 : en:01:39:45.563
01:51:15.544 : en:01:51:15.544
01:54:06.673 : en:01:54:06.673





1 個附件 售價 大小 下載 時間

Harmony.2015.JAPANESE.1080p.BluRay.x264.DTS-EPiC.torrent 0 金幣 43.90K 63 次 22分鐘前

#1樓
發帖時間:2019-10-12 21:07:21   |   回復數:1
tanchoohoon
武林盟主
感謝樓主的無私分享
13分鐘前 #2樓
游客組