coor
一代宗師

[更 早] [歐美] [喜劇] [WEB-1080P] 滑板狂熱/沖上云霄 Grind.2003.1080p.WEBRip.x264-RARBG 2.00GB

-->

帖子完整標題:滑板狂熱/沖上云霄 Grind.2003.1080p.WEBRip.x264-RARBG 2.00GB




◎譯  名 滑板狂熱 / 沖上云霄
◎片  名 Grind
◎年  代 2003
◎產  地 美國
◎類  別 喜劇 / 冒險 / 運動
◎語  言 英語
◎上映日期 2003-08-15
◎IMDb評分 6.0/10 from 11429 users
◎IMDb鏈接 https://www.imdb.com/title/tt0338077
◎豆瓣評分 8.0/10 from 592 users
◎豆瓣鏈接 https://movie.douban.com/subject/1302431/
◎片  長 USA: 105 分鐘
◎導  演 Casey La Scala
◎編  劇 Ralph Sall
◎主  演 Vince Vieluf
      Mike Vogel
      Adam Brody
      Joey Kern
      Jennifer Morrison


◎標  簽 滑板 | 青春 | 美國 | 滑板狂熱 | 運動 | 喜劇 | SK8 | 美國電影

◎簡  介

  艾瑞克(邁克·沃格爾 Mike Vogel 飾)是一名熱愛滑板運動的高中生,和其他的同齡學生不同,在他的內心里,有著對于未來的不一樣的打算。賈斯?。▉啴敗げ剂_迪 Adam Brody 飾)和馬特(文斯·維魯夫 Vince Vieluf 飾)是艾瑞克的死黨兼同好,三人一拍即合,決心依靠他們獨特炫目的技巧進軍職業滑板界。
  滑板明星杰米(杰森·倫敦 Jason London 飾)來到艾瑞克所在的城市巡演,艾瑞克一行人想要依靠吸引杰米的注意來得到入行的敲門磚,然而,現實卻并不如想象般的美好,但是三個年輕人沒有放棄,而是追隨著杰米的腳步,一路從芝加哥來到了加利福尼亞。在此過程中,他們不僅收獲了友誼,更遇見了美好的愛情。
Video
ID : 1
Format : AVC
Format/Info : Advanced Video Codec
Format profile : [email protected]
Format settings : CABAC / 4 Ref Frames
Format settings, CABAC : Yes
Format settings, Reference frames : 4 frames
Codec ID : avc1
Codec ID/Info : Advanced Video Coding
Duration : 1 h 44 min
Source duration : 1 h 44 min
Bit rate : 2 500 kb/s
Width : 1 910 pixels
Height : 1 080 pixels
Display aspect ratio : 16:9
Frame rate mode : Constant
Frame rate : 23.976 (23976/1000) FPS
Color space : YUV
Chroma subsampling : 4:2:0
Bit depth : 8 bits
Scan type : Progressive
Bits/(Pixel*Frame) : 0.051
Stream size : 1.83 GiB (92%)
Source stream size : 1.83 GiB (92%)
Writing library : x264 core 152 r2851M ba24899
Encoding settings : cabac=1 / ref=4 / deblock=1:-1:-1 / analyse=0x3:0x113 / me=umh / subme=9 / psy=1 / psy_rd=1.00:0.15 / mixed_ref=1 / me_range=24 / chroma_me=1 / trellis=2 / 8x8dct=1 / cqm=0 / deadzone=21,11 / fast_pskip=1 / chroma_qp_offset=-3 / threads=16 / lookahead_threads=4 / sliced_threads=0 / nr=0 / decimate=1 / interlaced=0 / bluray_compat=0 / constrained_intra=0 / bframes=3 / b_pyramid=2 / b_adapt=2 / b_bias=0 / direct=3 / weightb=1 / open_gop=0 / weightp=2 / keyint=250 / keyint_min=25 / scenecut=40 / intra_refresh=0 / rc_lookahead=50 / rc=2pass / mbtree=1 / bitrate=2500 / ratetol=1.0 / qcomp=0.60 / qpmin=0 / qpmax=69 / qpstep=4 / cplxblur=20.0 / qblur=0.5 / vbv_maxrate=31250 / vbv_bufsize=31250 / nal_hrd=none / filler=0 / ip_ratio=1.40 / aq=3:1.00
Encoded date : UTC 2020-01-11 07:10:01
Tagged date : UTC 2020-01-11 07:10:01
Codec configuration box : avcC

Audio
ID : 2
Format : AAC LC
Format/Info : Advanced Audio Codec Low Complexity
Codec ID : mp4a-40-2
Duration : 1 h 44 min
Duration_LastFrame : -11 ms
Bit rate mode : Constant
Bit rate : 224 kb/s
Channel(s) : 6 channels
Channel layout : C L R Ls Rs LFE
Sampling rate : 48.0 kHz
Frame rate : 46.875 FPS (1024 SPF)
Compression mode : Lossy
Stream size : 168 MiB (8%)
Language : English
Default : Yes
Alternate group : 1
Encoded date : UTC 2020-01-11 07:10:01
Tagged date : UTC 2020-01-11 07:10:01





1 個附件 售價 大小 下載 時間

Grind.2003.1080p.WEBRip.x264-RARBG.torrent 0 金幣 20.53K 231 次 2月前

#1樓
發帖時間:2020-01-11 16:35:39   |   回復數:1
911degrees
隱世仙人♂
非常感謝,謝謝分享
2月前 #2樓
游客組