coor
一代宗師

[2017] [歐美] [劇情] [WEB-720P] 奪命誓言 Deadly.Vows.2017.720p.AMZN.WEBRip.DDP5.1.x264-TEPES 2.80GB

-->

帖子完整標題:奪命誓言 Deadly.Vows.2017.720p.AMZN.WEBRip.DDP5.1.x264-TEPES 2.80GB




◎譯  名 奪命誓言 / A Wedding to Die For / 死亡控訴 / 致命誓言
◎片  名 Deadly vows
◎年  代 2017
◎產  地 美國
◎類  別 劇情 / 犯罪
◎語  言 英語
◎上映日期 2017-10-14(西班牙)
◎IMDb評分 4.7/10 from 221 users
◎IMDb鏈接 https://www.imdb.com/title/tt7557686
◎豆瓣評分 0/10 from 0 users
◎豆瓣鏈接 https://movie.douban.com/subject/27600839/
◎片  長 84分鐘
◎導  演 Fred Olen Ray
◎編  劇 Rolfe Kanefsky
◎主  演 Brittany Underwood
      夏洛林·阿莫亞 Charlene Amoia
      卡梅隆·賈寶 Cameron Jebo
      凱瑟琳·利·斯科特 Kathryn Leigh Scott
      Henry LeBlanc
      Gerald Webb


◎簡  介

  Pastry chef Helena poisons men who don't meet her high standards. Her fiancé Charlie has nothing to worry about, at least until his sister Becca becomes suspicious of Helena's culinary killing past. It's up to Becca to save Charlie from both the altar and the grave.
Video
ID : 1
Format : AVC
Format/Info : Advanced Video Codec
Format profile : [email protected]
Format settings : CABAC / 4 Ref Frames
Format settings, CABAC : Yes
Format settings, Reference frames : 4 frames
Codec ID : V_MPEG4/ISO/AVC
Duration : 1 h 30 min
Bit rate mode : Constant
Bit rate : 3 809 kb/s
Nominal bit rate : 6 000 kb/s
Width : 1 280 pixels
Height : 720 pixels
Display aspect ratio : 16:9
Frame rate mode : Constant
Frame rate : 23.976 (24000/1001) FPS
Color space : YUV
Chroma subsampling : 4:2:0
Bit depth : 8 bits
Scan type : Progressive
Bits/(Pixel*Frame) : 0.172
Stream size : 2.40 GiB (86%)
Default : Yes
Forced : No
Color range : Limited
Color primaries : BT.709
Transfer characteristics : BT.709
Matrix coefficients : BT.709

Audio
ID : 2
Format : E-AC-3
Format/Info : Enhanced AC-3
Commercial name : Dolby Digital Plus
Codec ID : A_EAC3
Duration : 1 h 30 min
Bit rate mode : Constant
Bit rate : 640 kb/s
Channel(s) : 6 channels
Channel layout : L R C LFE Ls Rs
Sampling rate : 48.0 kHz
Frame rate : 31.250 FPS (1536 SPF)
Compression mode : Lossy
Stream size : 412 MiB (14%)
Language : English
Service kind : Complete Main
Default : Yes
Forced : No

Text
ID : 3
Format : UTF-8
Codec ID : S_TEXT/UTF8
Codec ID/Info : UTF-8 Plain Text
Duration : 1 h 26 min
Bit rate : 73 b/s
Count of elements : 1480
Stream size : 46.7 KiB (0%)
Title : SDH
Language : English
Default : No
Forced : No





1 個附件 售價 大小 下載 時間

Deadly.Vows.2017.720p.AMZN.WEBRip.DDP5.1.x264-TEPES.torrent 0 金幣 28.55K 266 次 2月前

#1樓
發帖時間:2020-01-24 17:08:37   |   回復數:1
911degrees
隱世仙人♂
非常感謝,謝謝分享
2月前 #2樓
游客組