coor
一代宗師

[更 早] [歐美] [其他] [BD-1080P] 后窗 Rear.Window.1954.INTERNAL.1080p.BluRay.x264-CLASSiC 10.23GB

-->

帖子完整標題:后窗 Rear.Window.1954.INTERNAL.1080p.BluRay.x264-CLASSiC 10.23GB




◎譯  名 后窗 / Alfred Hitchcock's Rear Window / Fenêtre sur cour
◎片  名 Rear Window
◎年  代 1954
◎產  地 美國
◎類  別 懸疑 / 驚悚
◎語  言 英語
◎上映日期 1954-08-01(美國)
◎IMDb評分 8.4/10 from 414695 users
◎IMDb鏈接 https://www.imdb.com/title/tt0047396
◎豆瓣評分 8.5/10 from 106028 users
◎豆瓣鏈接 https://movie.douban.com/subject/1299080/
◎片  長 112 分鐘
◎導  演 阿爾弗雷德·希區柯克 Alfred Hitchcock
◎編  劇 約翰·邁克爾·海耶斯 John Michael Hayes / 康奈爾·伍爾里奇 Cornell Woolrich
◎主  演 詹姆斯·斯圖爾特 James Stewart
      格蕾絲·凱利 Grace Kelly
      溫戴爾·柯瑞 Wendell Corey
      瑟爾瑪·瑞特 Thelma Ritter
      雷蒙德·布爾 Raymond Burr
      朱迪思·伊夫林 Judith Evelyn
      羅斯·巴格達薩里安 Ross Bagdasarian
      喬金·達西 Georgine Darcy
      薩拉·伯納 Sara Berner
      弗蘭克·卡迪 Frank Cady
      杰絲琳·法克斯 Jesslyn Fax
      艾琳·溫斯頓 Irene Winston
      哈維斯·達文波特 Havis Davenport
      本尼·巴萊特 Benny Bartlett
      馬拉·英格麗什 Marla English
      貝絲·弗勞爾斯 Bess Flowers
      阿特·吉爾摩 Art Gilmore
      弗萊德·格蘭姆 Fred Graham
      凱絲琳·格蘭特 Kathryn Grant
      阿爾弗雷德·希區柯克 Alfred Hitchcock
      邁克·馬奧尼 Mike Mahoney
      杰克·斯托尼 Jack Stoney
      吉格·楊 Gig Young
      Rand Harper
      Jerry Antes
      Nick Borgani
      Iphigenie Castiglioni
      Don Dunning
      Harry Landers
      Jonni Paris
      Eddie Parker
      Robert Sherman
      Dick Simmons
      Ralph Smiley
      Anthony Warde


◎標  簽 希區柯克 | 懸疑 | 美國 | 經典 | 驚悚 | 美國電影 | 1954 | AlfredHitchcock

◎簡  介

  攝影師杰弗里斯(詹姆斯·斯圖爾特 飾)因站在賽車道中間拍攝,斷了左腿,只得在家靜養七周。除了保險公司的護士斯特拉(西爾瑪·里特 飾)和女友麗莎·卡羅爾·弗里蒙特(格雷斯·凱利 飾)每日前來照料,百無聊賴的杰弗里斯只能在窗前閑看鄰居們的日常生活以打發時間。對面公寓的二樓住著人造珠寶推銷員拉爾斯·托瓦爾德(雷蒙德·伯爾 飾)及妻子安娜(艾琳·溫斯頓 飾),夫妻之間爭吵不斷。一個雨夜,杰弗里斯看到拉爾斯提著箱子外出數次。次日,杰弗里斯又看到拉爾斯用報紙包裹一把鋸和一把刀。杰弗里斯起了疑心,他懷疑拉爾斯殺害了安娜并分尸拋棄。然而,杰弗里斯并未目擊案發過程,也未見到尸體。那么真相究竟如何呢?杰弗里斯的推測只是他的臆想嗎?為了證實他的推測,杰弗里斯要如何尋找證據呢?

◎獲獎情況

  第27屆奧斯卡金像獎(1955)
  最佳導演(提名) 阿爾弗雷德·希區柯克
  最佳編劇(提名) 約翰·邁克爾·海耶斯
  彩色片最佳攝影(提名) 羅伯特·伯克斯
  最佳錄音(提名) 洛倫·L·里德

  第15屆威尼斯電影節(1954)
  主競賽單元 金獅獎 (提名) 阿爾弗雷德·希區柯克
Video
ID : 1
Format : AVC
Format/Info : Advanced Video Codec
Format profile : [email protected]
Format settings : CABAC / 4 Ref Frames
Format settings, CABAC : Yes
Format settings, Reference frames : 4 frames
Codec ID : V_MPEG4/ISO/AVC
Duration : 1 h 52 min
Bit rate : 11.1 Mb/s
Width : 1 776 pixels
Height : 1 080 pixels
Display aspect ratio : 16:10
Frame rate mode : Constant
Frame rate : 23.976 (24000/1001) FPS
Color space : YUV
Chroma subsampling : 4:2:0
Bit depth : 8 bits
Scan type : Progressive
Bits/(Pixel*Frame) : 0.241
Stream size : 8.72 GiB (86%)
Writing library : x264 core 159 r2991 1771b55
Encoding settings : cabac=1 / ref=4 / deblock=1:0:0 / analyse=0x3:0x133 / me=tesa / subme=10 / psy=1 / psy_rd=1.00:0.00 / mixed_ref=1 / me_range=24 / chroma_me=1 / trellis=2 / 8x8dct=1 / cqm=0 / deadzone=21,11 / fast_pskip=0 / chroma_qp_offset=-2 / threads=24 / lookahead_threads=4 / sliced_threads=0 / nr=0 / decimate=1 / interlaced=0 / bluray_compat=0 / constrained_intra=0 / bframes=8 / b_pyramid=0 / b_adapt=2 / b_bias=0 / direct=3 / weightb=1 / open_gop=0 / weightp=2 / keyint=240 / keyint_min=24 / scenecut=40 / intra_refresh=0 / rc_lookahead=60 / rc=2pass / mbtree=1 / bitrate=11106 / ratetol=1.0 / qcomp=0.60 / qpmin=0 / qpmax=69 / qpstep=4 / cplxblur=20.0 / qblur=0.5 / vbv_maxrate=78125 / vbv_bufsize=62500 / nal_hrd=none / filler=0 / ip_ratio=1.40 / aq=1:1.00
Default : Yes
Forced : No
Color range : Limited
Color primaries : BT.709
Transfer characteristics : BT.709
Matrix coefficients : BT.709

Audio
ID : 2
Format : DTS XLL
Format/Info : Digital Theater Systems
Commercial name : DTS-HD Master Audio
Codec ID : A_DTS
Duration : 1 h 52 min
Bit rate mode : Variable
Bit rate : 1 771 kb/s
Channel(s) : 2 channels
Channel layout : L R
Sampling rate : 48.0 kHz
Frame rate : 93.750 FPS (512 SPF)
Bit depth : 24 bits
Compression mode : Lossless
Stream size : 1.39 GiB (14%)
Language : English
Default : Yes
Forced : No

Menu
00:00:00.000 : en:Chapter 01
00:01:36.388 : en:Chapter 02
00:08:29.384 : en:Chapter 03
00:15:37.895 : en:Chapter 04
00:21:26.285 : en:Chapter 05
00:27:13.423 : en:Chapter 06
00:32:01.211 : en:Chapter 07
00:36:38.863 : en:Chapter 08
00:43:05.041 : en:Chapter 09
00:53:40.426 : en:Chapter 10
01:00:52.566 : en:Chapter 11
01:12:25.508 : en:Chapter 12
01:18:46.221 : en:Chapter 13
01:25:06.893 : en:Chapter 14
01:37:26.299 : en:Chapter 15
01:44:56.081 : en:Chapter 16
01:50:35.921 : en:Chapter 17





1 個附件 售價 大小 下載 時間

Rear.Window.1954.INTERNAL.1080p.BluRay.x264-CLASSiC.torrent 0 金幣 51.89K 1785 次 1月前

#1樓
發帖時間:2020-01-24 17:12:47   |   回復數:2
jokingcheung
一代宗師
謝謝分享
1月前 #2樓
911degrees
隱世仙人♂
非常感謝,謝謝分享
28天前 #3樓
游客組