coor
一代宗師

[更 早] [歐美] [喜劇] [BD-1080P] 怪尸案/哈里的糾紛 The.Trouble.With.Harry.1955.INTERNAL.1080p.BluRay.x264-CLASSiC 8.86GB

-->

帖子完整標題:怪尸案/哈里的糾紛 The.Trouble.With.Harry.1955.INTERNAL.1080p.BluRay.x264-CLASSiC 8.86GB




◎譯  名 怪尸案 / 哈里的糾紛 / 哈里的麻煩 / 怪尸記
◎片  名 The Trouble with Harry
◎年  代 1955
◎產  地 美國
◎類  別 喜劇 / 懸疑
◎語  言 英語
◎上映日期 1955-10-03(美國)
◎IMDb評分 7.1/10 from 31420 users
◎IMDb鏈接 https://www.imdb.com/title/tt0048750
◎豆瓣評分 7.5/10 from 7999 users
◎豆瓣鏈接 https://movie.douban.com/subject/1301232/
◎片  長 99 分鐘
◎導  演 阿爾弗雷德·希區柯克 Alfred Hitchcock
◎編  劇 約翰·邁克爾·海耶斯 John Michael Hayes / Jack Trevor Story
◎主  演 埃德蒙·戈溫 Edmund Gwenn
      約翰·福賽思 John Forsythe
      米爾翠德·納特威克 Mildred Natwick
      米爾德麗德·丹諾克 Mildred Dunnock
      羅亞爾·達諾 Royal Dano
      德懷特·馬費爾德 Dwight Marfield
      雪莉·麥克雷恩 Shirley MacLaine
      阿爾弗雷德·希區柯克 Alfred Hitchcock
      Jerry Mathers
      Parker Fennelly
      Barry Macollum
      Ernest Curt Bach
      Philip Truex
      Leslie Woolf


◎標  簽 希區柯克 | 懸疑 | 美國 | 喜劇 | AlfredHitchcock | 1955 | 阿爾弗雷德·希區柯克 | 美國電影

◎簡  介

  小男孩哈尼在森林中漫步時,發現了他的父親——哈利的尸體。不同于一般謀殺案,這次因為多人都自認為兇手而令案情更加撲朔迷離。亞伯特船長(埃德蒙?格溫 Edmund Gwenn 飾)認為是他在打獵射擊時誤殺了哈利;村落里的老處女葛雷布禮小姐(麥爾翠德?耐維克 Mildred Natwick 飾)認為是因為她為了保住自己的名聲而用一只鞋子打了哈利的頭部而造成他的死亡;與哈利感情不睦的妻子珍妮佛(雪莉?麥克雷恩 Shirley MacLaine 飾)則認為是她因為反抗哈利的性愛用裝牛奶的罐子敲向他的腦袋而造成了他的死亡。真相最后能否水落石出?

◎獲獎情況

  第12屆金球獎(1955)
  電影類 年度女新星 雪莉·麥克雷恩
Video
ID : 1
Format : AVC
Format/Info : Advanced Video Codec
Format profile : [email protected]
Format settings : CABAC / 4 Ref Frames
Format settings, CABAC : Yes
Format settings, Reference frames : 4 frames
Codec ID : V_MPEG4/ISO/AVC
Duration : 1 h 39 min
Bit rate : 10.8 Mb/s
Width : 1 920 pixels
Height : 1 040 pixels
Display aspect ratio : 1.85:1
Frame rate mode : Constant
Frame rate : 23.976 (24000/1001) FPS
Color space : YUV
Chroma subsampling : 4:2:0
Bit depth : 8 bits
Scan type : Progressive
Bits/(Pixel*Frame) : 0.225
Stream size : 7.49 GiB (86%)
Writing library : x264 core 159 r2991 1771b55
Encoding settings : cabac=1 / ref=4 / deblock=1:0:0 / analyse=0x3:0x133 / me=tesa / subme=10 / psy=1 / psy_rd=1.00:0.00 / mixed_ref=1 / me_range=24 / chroma_me=1 / trellis=2 / 8x8dct=1 / cqm=0 / deadzone=21,11 / fast_pskip=0 / chroma_qp_offset=-2 / threads=24 / lookahead_threads=4 / sliced_threads=0 / nr=0 / decimate=1 / interlaced=0 / bluray_compat=0 / constrained_intra=0 / bframes=8 / b_pyramid=0 / b_adapt=2 / b_bias=0 / direct=3 / weightb=1 / open_gop=0 / weightp=2 / keyint=240 / keyint_min=24 / scenecut=40 / intra_refresh=0 / rc_lookahead=60 / rc=2pass / mbtree=1 / bitrate=10793 / ratetol=1.0 / qcomp=0.60 / qpmin=0 / qpmax=69 / qpstep=4 / cplxblur=20.0 / qblur=0.5 / vbv_maxrate=78125 / vbv_bufsize=62500 / nal_hrd=none / filler=0 / ip_ratio=1.40 / aq=1:1.00
Default : Yes
Forced : No
Color range : Limited
Color primaries : BT.709
Transfer characteristics : BT.709
Matrix coefficients : BT.709

Audio
ID : 2
Format : DTS XLL
Format/Info : Digital Theater Systems
Commercial name : DTS-HD Master Audio
Codec ID : A_DTS
Duration : 1 h 39 min
Bit rate mode : Variable
Bit rate : 1 780 kb/s
Channel(s) : 2 channels
Channel layout : L R
Sampling rate : 48.0 kHz
Frame rate : 93.750 FPS (512 SPF)
Bit depth : 24 bits
Compression mode : Lossless
Stream size : 1.24 GiB (14%)
Language : English
Default : Yes
Forced : No

Menu
00:00:00.000 : en:Chapter 01
00:01:52.070 : en:Chapter 02
00:05:15.440 : en:Chapter 03
00:14:06.220 : en:Chapter 04
00:20:47.496 : en:Chapter 05
00:24:20.084 : en:Chapter 06
00:38:01.696 : en:Chapter 07
00:43:15.051 : en:Chapter 08
00:47:21.630 : en:Chapter 09
00:54:20.883 : en:Chapter 10
00:56:49.865 : en:Chapter 11
01:02:55.063 : en:Chapter 12
01:10:03.658 : en:Chapter 13
01:14:28.005 : en:Chapter 14
01:21:21.835 : en:Chapter 15
01:26:25.972 : en:Chapter 16
01:34:42.760 : en:Chapter 17
01:37:19.584 : en:Chapter 18





1 個附件 售價 大小 下載 時間

The.Trouble.With.Harry.1955.INTERNAL.1080p.BluRay.x264-CLASSiC.torrent 0 金幣 45.05K 700 次 1月前

#1樓
發帖時間:2020-01-24 17:14:46   |   回復數:1
911degrees
隱世仙人♂
非常感謝,謝謝分享
28天前 #2樓
游客組