coor
一代宗師

[2019] [其他] [劇情] [BD-1080P] 睡夢醫生 Doctor.Sleep.2019.DC.1080p.BluRay.x264.TrueHD.7.1.Atmos-FGT 15.79GB

-->

帖子完整標題:睡夢醫生 Doctor.Sleep.2019.DC.1080p.BluRay.x264.TrueHD.7.1.Atmos-FGT 15.79GB




◎譯  名 睡夢醫生 / Dr. Sleep / 《閃靈》續集 / 安眠醫生(臺) / 睡眠醫師 / 睡眠醫生 / 長眠醫生
◎片  名 Doctor Sleep
◎年  代 2019
◎產  地 美國 / 英國
◎類  別 劇情 / 驚悚 / 恐怖 / 奇幻
◎語  言 英語
◎上映日期 2019-10-30(法國) / 2019-10-31(英國) / 2019-11-08(美國)
◎IMDb評分 7.5/10 from 50008 users
◎IMDb鏈接 https://www.imdb.com/title/tt5606664
◎豆瓣評分 6.8/10 from 8282 users
◎豆瓣鏈接 https://movie.douban.com/subject/25932065/
◎片  長 151分鐘
◎導  演 邁克·弗拉納根 Mike Flanagan
◎編  劇 斯蒂芬·金 Stephen King / 邁克·弗拉納根 Mike Flanagan
◎主  演 伊萬·麥克格雷格 Ewan McGregor
      麗貝卡·弗格森 Rebecca Ferguson
      凱麗·卡倫 Kyliegh Curran
      雅各布·特倫布萊 Jacob Tremblay
      卡雷爾·斯特魯基 Carel Struycken
      丹尼·勞埃德 Danny Lloyd
      艾米麗·阿琳·林德 Emily Alyn Lind
      克利夫·柯蒂斯 Cliff Curtis
      扎恩·邁克拉農 Zahn McClarnon
      切爾西·塔爾瑪琪 Chelsea Talmadge
      艾麗克斯·埃索 Alex Essoe
      布魯斯·格林伍德 Bruce Greenwood
      喬賽琳·唐娜休 Jocelin Donahue
      卡爾·盧波利 Carl Lumbly
      維奧萊特·麥格勞 Violet McGraw
      凱瑟琳·帕克 Catherine Parker
      羅伯特·朗斯特里特 Robert Longstreet
      賽琳娜·安杜茲 Selena Anduze
      尼古拉斯·普羅約爾 Nicholas Pryor
      貝瑟妮·安妮·林德 Bethany Anne Lind
      查爾斯·格林 Charles Green
      扎克瑞·莫莫 Zackary Momoh
      杰森·戴維斯 Jason Davis
      胡安·賈斯帕 Juan Gaspard
      路易斯·桑切斯 Luis Sanchez


◎標  簽 恐怖 | 驚悚 | 閃靈續集 | 美國 | 靈異 | 2019 | 小說改編 | 奇幻

◎簡  介

  《閃靈》續集《睡眠醫師》(Doctor Sleep)北美定檔2020年1月24日,依然根據斯蒂芬·金的同名小說改編,邁克·弗拉納甘(《杰羅德游戲》《死亡占卜2》《夢醒之前》)執導。本片聚焦閃靈里的兒子Danny Torrance,經歷了Overlook Hotel里可怕的童年時光后,他已經流浪了幾十年,渴望擺脫父親的絕望、酒精、暴力等特質,最終定居在新罕布什爾州的一個小鎮上,這是一個支持他的AA制社區,他在一家養老院找到工作,在那里他殘余的“閃靈”之力為垂死之人提供了至關重要的最終安慰。在一只有預知能力的貓的幫助下,他成為了“睡眠醫師”。2001年女嬰Abra Stone誕生,她逐漸開始展現超自然之力,似乎預測到了911事件。她緩慢而無意地與Danny建立起心靈感應的紐帶,隨著她的成長,力量也比Danny的更加強大,Danny被重新激起他心中的惡魔,并召喚他為Abra的靈魂和生存戰斗。
  弗拉納甘重寫劇本,此前由Akiva Goldsman改編。
Video
ID : 1
Format : AVC
Format/Info : Advanced Video Codec
Format profile : [email protected]
Format settings : CABAC / 4 Ref Frames
Format settings, CABAC : Yes
Format settings, Reference frames : 4 frames
Codec ID : V_MPEG4/ISO/AVC
Duration : 3 h 0 min
Bit rate : 8 030 kb/s
Width : 1 920 pixels
Height : 1 040 pixels
Display aspect ratio : 1.85:1
Frame rate mode : Constant
Frame rate : 23.976 (24000/1001) FPS
Color space : YUV
Chroma subsampling : 4:2:0
Bit depth : 8 bits
Scan type : Progressive
Bits/(Pixel*Frame) : 0.168
Stream size : 10.1 GiB (64%)
Title : Doctor.Sleep.2019.DC.1080p.BluRay.x264.TrueHD.7.1.Atmos-FGT
Writing library : x264 core 157 r2969 d4099dd
Encoding settings : cabac=1 / ref=4 / deblock=1:0:0 / analyse=0x3:0x113 / me=umh / subme=8 / psy=1 / psy_rd=1.00:0.00 / mixed_ref=1 / me_range=16 / chroma_me=1 / trellis=1 / 8x8dct=1 / cqm=0 / deadzone=21,11 / fast_pskip=1 / chroma_qp_offset=-2 / threads=16 / lookahead_threads=2 / sliced_threads=0 / nr=0 / decimate=1 / interlaced=0 / bluray_compat=0 / constrained_intra=0 / bframes=3 / b_pyramid=2 / b_adapt=2 / b_bias=0 / direct=3 / weightb=1 / open_gop=0 / weightp=2 / keyint=240 / keyint_min=23 / scenecut=40 / intra_refresh=0 / rc_lookahead=50 / rc=2pass / mbtree=1 / bitrate=8030 / ratetol=1.0 / qcomp=0.60 / qpmin=0 / qpmax=69 / qpstep=4 / cplxblur=20.0 / qblur=0.5 / ip_ratio=1.40 / aq=1:1.00
Default : Yes
Forced : No

Audio #1
ID : 2
Format : MLP FBA 16-ch
Format/Info : Meridian Lossless Packing FBA with 16-channel presentation
Commercial name : Dolby TrueHD with Dolby Atmos
Codec ID : A_TRUEHD
Duration : 3 h 0 min
Bit rate mode : Variable
Bit rate : 3 797 kb/s
Maximum bit rate : 7 026 kb/s
Channel(s) : 8 channels
Channel layout : L R C LFE Ls Rs Lb Rb
Sampling rate : 48.0 kHz
Frame rate : 1 200.000 FPS (40 SPF)
Compression mode : Lossless
Stream size : 4.78 GiB (30%)
Title : Doctor.Sleep.2019.DC.1080p.BluRay.x264.TrueHD.7.1.Atmos-FGT
Language : English
Default : Yes
Forced : No
Number of dynamic objects : 15
Bed channel count : 1 channel
Bed channel configuration : LFE

Audio #2
ID : 3
Format : AC-3
Format/Info : Audio Coding 3
Commercial name : Dolby Digital
Codec ID : A_AC3
Duration : 3 h 0 min
Bit rate mode : Constant
Bit rate : 640 kb/s
Channel(s) : 6 channels
Channel layout : L R C LFE Ls Rs
Sampling rate : 48.0 kHz
Frame rate : 31.250 FPS (1536 SPF)
Bit depth : 16 bits
Compression mode : Lossy
Stream size : 825 MiB (5%)
Title : Doctor.Sleep.2019.DC.1080p.BluRay.x264.TrueHD.7.1.Atmos-FGT
Language : English
Service kind : Complete Main
Default : No
Forced : No

Text #1
ID : 4
Format : UTF-8
Codec ID : S_TEXT/UTF8
Codec ID/Info : UTF-8 Plain Text
Duration : 2 h 53 min
Bit rate : 38 b/s
Count of elements : 1971
Stream size : 49.1 KiB (0%)
Title : English-SRT
Language : English
Default : Yes
Forced : No

Text #2
ID : 5
Format : PGS
Muxing mode : zlib
Codec ID : S_HDMV/PGS
Codec ID/Info : Picture based subtitle format used on BDs/HD-DVDs
Duration : 2 h 54 min
Bit rate : 28.4 kb/s
Count of elements : 4686
Stream size : 35.6 MiB (0%)
Title : English-PGS
Language : English
Default : No
Forced : No

Menu
00:00:00.000 : :Chapter 01
00:08:29.300 : :Chapter 02
00:16:39.624 : :Chapter 03
00:28:01.638 : :Chapter 04
00:36:45.453 : :Chapter 05
00:44:42.763 : :Chapter 06
00:53:24.368 : :Chapter 07
01:03:41.484 : :Chapter 08
01:13:39.457 : :Chapter 09
01:22:05.963 : :Chapter 10
01:28:56.331 : :Chapter 11
01:37:13.244 : :Chapter 12
01:46:31.594 : :Chapter 13
01:55:11.530 : :Chapter 14
02:06:20.323 : :Chapter 15
02:14:58.590 : :Chapter 16
02:21:33.402 : :Chapter 17
02:31:58.359 : :Chapter 18
02:42:26.403 : :Chapter 19
02:54:07.437 : :Chapter 20





1 個附件 售價 大小 下載 時間

Doctor.Sleep.2019.DC.1080p.BluRay.x264.TrueHD.7.1.Atmos-FGT.torrent 0 金幣 79.50K 2247 次 2月前

#1樓
發帖時間:2020-01-24 17:16:51   |   回復數:3
liyouchai
隱世仙人♂
謝謝樓主分享資源
2月前 #2樓
kola13
一派掌門
感謝分享
2月前 #3樓
911degrees
隱世仙人♂
非常感謝,謝謝分享
2月前 #4樓
游客組