coor
一代宗師

[2016] [歐美] [喜劇] [WEB-1080P] 利伯蒂的秘密 Libertys.Secret.2016.1080p.AMZN.WEBRip.DDP2.0.x264-TEPES 6.07GB

-->

帖子完整標題:利伯蒂的秘密 Libertys.Secret.2016.1080p.AMZN.WEBRip.DDP2.0.x264-TEPES 6.07GB




◎譯  名 利伯蒂的秘密
◎片  名 Liberty's Secret
◎年  代 2016
◎產  地 美國
◎類  別 喜劇 / 愛情 / 歌舞
◎語  言 英語
◎上映日期 2016-10-09(德國)
◎IMDb評分 4.9/10 from 338 users
◎IMDb鏈接 https://www.imdb.com/title/tt4396662
◎豆瓣評分 5.3/10 from 101 users
◎豆瓣鏈接 https://movie.douban.com/subject/26947308/
◎導  演 Andy Kirshner / Debbie Williams
◎編  劇 Andy Kirshner
◎主  演 Jaclene Wilk
      Cara AnnMarie
      Chris Lutkin


◎標  簽 美國 | 同性 | les | 百合 | LGBT | 歌舞 | 2016 | 政治諷刺

◎簡  介

  影片講述了24歲的女孩Liberty Smith,作為宣揚“家庭價值觀”的傳教士的女兒,有著姣好的容顏和天使般的嗓音,一時引起全國性政治轟動。與此同時,她漸漸愛上了自己的政治公關導師Nikki Levine。
Video
ID : 1
Format : AVC
Format/Info : Advanced Video Codec
Format profile : [email protected]
Format settings : CABAC / 4 Ref Frames
Format settings, CABAC : Yes
Format settings, Reference frames : 4 frames
Codec ID : V_MPEG4/ISO/AVC
Duration : 1 h 38 min
Bit rate mode : Constant
Bit rate : 8 627 kb/s
Nominal bit rate : 10 000 kb/s
Width : 1 920 pixels
Height : 1 080 pixels
Display aspect ratio : 16:9
Frame rate mode : Constant
Frame rate : 23.976 (24000/1001) FPS
Color space : YUV
Chroma subsampling : 4:2:0
Bit depth : 8 bits
Scan type : Progressive
Bits/(Pixel*Frame) : 0.174
Stream size : 5.92 GiB (97%)
Default : Yes
Forced : No
Color range : Limited
Color primaries : BT.709
Transfer characteristics : BT.709
Matrix coefficients : BT.709

Audio
ID : 2
Format : E-AC-3
Format/Info : Enhanced AC-3
Commercial name : Dolby Digital Plus
Codec ID : A_EAC3
Duration : 1 h 38 min
Bit rate mode : Constant
Bit rate : 224 kb/s
Channel(s) : 2 channels
Channel layout : L R
Sampling rate : 48.0 kHz
Frame rate : 31.250 FPS (1536 SPF)
Compression mode : Lossy
Stream size : 157 MiB (3%)
Language : English
Service kind : Complete Main
Default : Yes
Forced : No

Text
ID : 3
Format : UTF-8
Codec ID : S_TEXT/UTF8
Codec ID/Info : UTF-8 Plain Text
Duration : 1 h 38 min
Bit rate : 71 b/s
Count of elements : 1789
Stream size : 51.5 KiB (0%)
Title : SDH
Language : English
Default : No
Forced : No





1 個附件 售價 大小 下載 時間

Libertys.Secret.2016.1080p.AMZN.WEBRip.DDP2.0.x264-TEPES.torrent 0 金幣 30.90K 399 次 1月前

#1樓
發帖時間:2020-01-24 17:27:49   |   回復數:1
911degrees
隱世仙人♂
非常感謝,謝謝分享
28天前 #2樓
游客組