coor
一代宗師

[2017] [歐美] [WEB-1080P] 母親的罪行 A.Mothers.Crime.2017.1080p.AMZN.WEBRip.DDP5.1.x264-TEPES 6.04GB

-->

帖子完整標題:母親的罪行 A.Mothers.Crime.2017.1080p.AMZN.WEBRip.DDP5.1.x264-TEPES 6.04GB




◎譯  名 母親的罪行
◎片  名 A Mother's Crime
◎年  代 2017
◎產  地 美國
◎語  言 英語
◎上映日期 2017-08-21(美國)
◎IMDb評分 5.0/10 from 109 users
◎IMDb鏈接 https://www.imdb.com/title/tt7444708
◎豆瓣評分 0/10 from 0 users
◎豆瓣鏈接 https://movie.douban.com/subject/27170046/
◎片  長 90分鐘
◎導  演 Farhad Mann
◎編  劇 Stephen Lyons / Ananya Menon
◎主  演 艾普爾·鮑白 April Bowlby
      Jenny Gabrielle
      Matt Page
      Brytnee Ratledge
      Allyson Harbert
      Matthew Van Wettering


◎簡  介

  Encouraged by her lover, Danielle kills her husband and goes on the lam with her infant daughter Cali. But the cops catch her and, en route to prison, she agrees to give custody of Cali to her arch rival, her sister Nikki. But on release from prison, Danielle will stop at nothing to get Cali back from Nikki's safe and healthy home.
Video
ID : 1
Format : AVC
Format/Info : Advanced Video Codec
Format profile : [email protected]
Format settings : CABAC / 4 Ref Frames
Format settings, CABAC : Yes
Format settings, Reference frames : 4 frames
Codec ID : V_MPEG4/ISO/AVC
Duration : 1 h 28 min
Bit rate mode : Constant
Bit rate : 9 104 kb/s
Nominal bit rate : 10 000 kb/s
Width : 1 920 pixels
Height : 1 080 pixels
Display aspect ratio : 16:9
Frame rate mode : Constant
Frame rate : 23.976 (24000/1001) FPS
Color space : YUV
Chroma subsampling : 4:2:0
Bit depth : 8 bits
Scan type : Progressive
Bits/(Pixel*Frame) : 0.183
Stream size : 5.65 GiB (93%)
Default : Yes
Forced : No
Color range : Limited
Color primaries : BT.709
Transfer characteristics : BT.709
Matrix coefficients : BT.709

Audio
ID : 2
Format : E-AC-3
Format/Info : Enhanced AC-3
Commercial name : Dolby Digital Plus
Codec ID : A_EAC3
Duration : 1 h 28 min
Bit rate mode : Constant
Bit rate : 640 kb/s
Channel(s) : 6 channels
Channel layout : L R C LFE Ls Rs
Sampling rate : 48.0 kHz
Frame rate : 31.250 FPS (1536 SPF)
Compression mode : Lossy
Stream size : 406 MiB (7%)
Language : English
Service kind : Complete Main
Default : Yes
Forced : No

Text
ID : 3
Format : UTF-8
Codec ID : S_TEXT/UTF8
Codec ID/Info : UTF-8 Plain Text
Duration : 1 h 28 min
Bit rate : 57 b/s
Count of elements : 1316
Stream size : 36.9 KiB (0%)
Title : SDH
Language : English
Default : No
Forced : No





1 個附件 售價 大小 下載 時間

A.Mothers.Crime.2017.1080p.AMZN.WEBRip.DDP5.1.x264-TEPES.torrent 0 金幣 30.77K 448 次 2月前

#1樓
發帖時間:2020-01-24 17:43:46   |   回復數:2
tanchoohoon
武林盟主
感謝樓主的無私分享
2月前 #2樓
911degrees
隱世仙人♂
非常感謝,謝謝分享
2月前 #3樓
游客組