coor
一代宗師

[2012] [其他] [劇情] [WEB-1080P] 米洛 Milo.2012.1080p.AMZN.WEBRip.DDP2.0.x264-TEPES 3.86GB

-->

帖子完整標題:米洛 Milo.2012.1080p.AMZN.WEBRip.DDP2.0.x264-TEPES 3.86GB




◎譯  名 米洛
◎片  名 Milo
◎年  代 2012
◎產  地 荷蘭
◎類  別 劇情
◎語  言 英語
◎上映日期 2012-11-08(荷蘭)
◎IMDb評分 6.4/10 from 209 users
◎IMDb鏈接 https://www.imdb.com/title/tt1242658
◎豆瓣評分 0/10 from 0 users
◎豆瓣鏈接 https://movie.douban.com/subject/10749453/
◎片  長 94分鐘
◎導  演 Berend Boorsma / Roel Boorsma
◎主  演 Stuart Graham
      Laura Vasiliu
      Dolf de Vries
      Lorcan Bonner
      Charlotte Bradley


◎標  簽 荷蘭電影 | 荷蘭 | 兒童 | M荷蘭 | 荷蘭電影;童年;疾病 | 電影 | 犯罪 | 劇情

◎簡  介

  米洛是一位孤獨的十歲小男孩,因為“皮膚敏感”,一直生活在父親的嚴格控制之下。受到第一份友誼的鼓舞,他離家出走,去參加學校的露營旅行——但他沒有到達目的地。他落入了一對日漸衰老的罪犯夫婦手中,卻享受到了脫離控制之后純粹的自由,直到他了解了自己皮膚狀況的真相,倍感震驚。米洛對父愛充滿疑惑,他必須直面真實的自己。

◎獲獎情況

  第33屆荷蘭電影節(2013)
  金牛獎 最佳剪輯(提名) Marc Bechtold
Video
ID : 1
Format : AVC
Format/Info : Advanced Video Codec
Format profile : [email protected]
Format settings : CABAC / 4 Ref Frames
Format settings, CABAC : Yes
Format settings, Reference frames : 4 frames
Codec ID : V_MPEG4/ISO/AVC
Duration : 1 h 34 min
Bit rate mode : Constant
Bit rate : 5 611 kb/s
Nominal bit rate : 10 000 kb/s
Width : 1 920 pixels
Height : 816 pixels
Display aspect ratio : 2.35:1
Frame rate mode : Constant
Frame rate : 24.000 FPS
Color space : YUV
Chroma subsampling : 4:2:0
Bit depth : 8 bits
Scan type : Progressive
Bits/(Pixel*Frame) : 0.149
Stream size : 3.71 GiB (96%)
Default : Yes
Forced : No
Color range : Limited
Color primaries : BT.709
Transfer characteristics : BT.709
Matrix coefficients : BT.709

Audio
ID : 2
Format : E-AC-3
Format/Info : Enhanced AC-3
Commercial name : Dolby Digital Plus
Codec ID : A_EAC3
Duration : 1 h 34 min
Bit rate mode : Constant
Bit rate : 224 kb/s
Channel(s) : 2 channels
Channel layout : L R
Sampling rate : 48.0 kHz
Frame rate : 31.250 FPS (1536 SPF)
Compression mode : Lossy
Stream size : 152 MiB (4%)
Language : English
Service kind : Complete Main
Default : Yes
Forced : No

Text
ID : 3
Format : UTF-8
Codec ID : S_TEXT/UTF8
Codec ID/Info : UTF-8 Plain Text
Duration : 1 h 33 min
Bit rate : 46 b/s
Count of elements : 1041
Stream size : 31.6 KiB (0%)
Title : SDH
Language : English
Default : No
Forced : No





1 個附件 售價 大小 下載 時間

Milo.2012.1080p.AMZN.WEBRip.DDP2.0.x264-TEPES.torrent 0 金幣 39.09K 196 次 1月前

#1樓
發帖時間:2020-01-24 18:27:08   |   回復數:2
blue23
隱世仙人♂
感謝樓主分享
1月前 #2樓
911degrees
隱世仙人♂
非常感謝,謝謝分享
28天前 #3樓
游客組