coor
一代宗師

[2013] [歐美] [劇情] [WEB-720P] 換妻游戲 What.Other.Couples.Do.2013.720p.AMZN.WEBRip.AAC2.0.x264-TEPES 2.30GB

-->

帖子完整標題:換妻游戲 What.Other.Couples.Do.2013.720p.AMZN.WEBRip.AAC2.0.x264-TEPES 2.30GB




◎譯  名 換妻游戲
◎片  名 What Other Couples Do
◎年  代 2013
◎產  地 美國
◎類  別 劇情 / 喜劇 / 愛情
◎語  言 英語
◎上映日期 2013-09-05
◎IMDb評分 5.5/10 from 290 users
◎IMDb鏈接 https://www.imdb.com/title/tt2375763
◎豆瓣評分 0/10 from 0 users
◎豆瓣鏈接 https://movie.douban.com/subject/26417540/
◎片  長 87分鐘
◎導  演 Courtney Daniels
◎編  劇 Courtney Daniels
◎主  演 Cate Beehan
      Eric Callero
      Michael Marc Friedman
      Jordan Glasser
      Alison Goodman
      Christopher Goodman
      Kristina Hayes
      Gregory Hoyt
      Hari Leigh
      Emily Maya Mills
      Robert Chester Smith


◎標  簽 愛情 | 美國 | 2013 | 待譯 | ★情色/倫理/三級 | Indy | .

◎簡  介

  While at a dinner party, four married Los Angeles couples play 'a kissing game,' Seven Minutes in Heaven.
Video
ID : 1
Format : AVC
Format/Info : Advanced Video Codec
Format profile : [email protected]
Format settings : CABAC / 4 Ref Frames
Format settings, CABAC : Yes
Format settings, Reference frames : 4 frames
Format settings, GOP : M=4, N=48
Codec ID : V_MPEG4/ISO/AVC
Duration : 1 h 27 min
Bit rate mode : Constant
Bit rate : 3 656 kb/s
Nominal bit rate : 6 000 kb/s
Width : 1 280 pixels
Height : 544 pixels
Display aspect ratio : 2.35:1
Original display aspect ratio : 2.35:1
Frame rate mode : Constant
Frame rate : 23.976 (24000/1001) FPS
Color space : YUV
Chroma subsampling : 4:2:0
Bit depth : 8 bits
Scan type : Progressive
Bits/(Pixel*Frame) : 0.219
Stream size : 2.22 GiB (97%)
Default : Yes
Forced : No
Color range : Limited
Color primaries : BT.709
Transfer characteristics : BT.709
Matrix coefficients : BT.709

Audio
ID : 2
Format : AAC LC
Format/Info : Advanced Audio Codec Low Complexity
Codec ID : A_AAC-2
Duration : 1 h 27 min
Bit rate : 128 kb/s
Channel(s) : 2 channels
Channel layout : L R
Sampling rate : 48.0 kHz
Frame rate : 46.875 FPS (1024 SPF)
Compression mode : Lossy
Stream size : 79.7 MiB (3%)
Language : English
Default : Yes
Forced : No

Text
ID : 3
Format : UTF-8
Codec ID : S_TEXT/UTF8
Codec ID/Info : UTF-8 Plain Text
Duration : 1 h 23 min
Bit rate : 87 b/s
Count of elements : 1406
Stream size : 53.3 KiB (0%)
Title : SDH
Language : English
Default : No
Forced : No

Menu
00:00:00.000 : en:Everyone gets ready for dinner
00:07:29.000 : en:Title Sequence
00:07:33.000 : en:Ryan and Bree arrive
00:11:22.000 : en:Ginger arrives
00:15:36.000 : en:Everyone sits down to dinner
00:20:24.000 : en:Divorce Rate
00:22:05.000 : en:Everyone decides to stay the night
00:28:51.000 : en:The guys play cards
00:34:50.000 : en:Donuts
00:37:33.000 : en:The girls propose a game
00:40:06.000 : en:Michelle and Ryan decide to play
00:45:16.000 : en:Ryan and Bree share an honest moment
00:50:55.000 : en:Lisa and Dave go first
00:55:22.000 : en:Ginger and Josh
00:58:55.000 : en:Michelle and Chris
01:02:52.000 : en:Brad and Ginger talk
01:05:31.000 : en:Brad and Lisa
01:06:49.000 : en:Aftermath
01:11:38.000 : en:The couples go to bed for the night
01:17:50.000 : en:The day after
01:20:06.000 : en:The couples leave the house
01:23:17.000 : en:End Credits





1 個附件 售價 大小 下載 時間

What.Other.Couples.Do.2013.720p.AMZN.WEBRip.AAC2.0.x264-TEPES.torrent 0 金幣 23.57K 4585 次 1月前

#1樓
發帖時間:2020-01-24 18:42:15   |   回復數:3
tanchoohoon
武林盟主
感謝樓主的無私分享
1月前 #2樓
121076
一派掌門
支持分享,多謝~  
1月前 #3樓
911degrees
隱世仙人♂
非常感謝,謝謝分享
28天前 #4樓
游客組