coor
一代宗師

[更 早] [其他] [劇情] [WEB-1080P] 圣文森的男孩們/圣文生男孩 The.Boys.Of.St.Vincent.1992.1080p.AMZN.WEBRip.DDP2.0.x264-TEPES 3.

-->

帖子完整標題:圣文森的男孩們/圣文生男孩 The.Boys.Of.St.Vincent.1992.1080p.AMZN.WEBRip.DDP2.0.x264-TEPES 3.62GB




◎譯  名 圣文森的男孩們 / 圣文生男孩 / 文森特大街的男孩
◎片  名 The Boys of St. Vincent
◎年  代 1992
◎產  地 加拿大
◎類  別 劇情
◎語  言 英語
◎上映日期 1992-12-06(加拿大)
◎IMDb評分 7.6/10 from 1503 users
◎IMDb鏈接 https://www.imdb.com/title/tt0106473
◎豆瓣評分 7.4/10 from 138 users
◎豆瓣鏈接 https://movie.douban.com/subject/1862927/
◎片  長 93分鐘
◎導  演 John N. Smith
◎編  劇 Des Walsh / John N. Smith / Sam Grana
◎主  演 亨利·科澤尼 Henry Czerny
      Johnny Morina
      Brian Dooley
      Philip Dinn
      Brian Dodd
      Ashley Billard
      Jeremy Keefe
      Jonathan Lewis
      Michael Wade
      Greg Thomey
      阿萊恩·古勒姆 Alain Goulem
      艾丹·迪瓦恩 Aidan Devine
      Sean Tataryn
      David Graham
      Daniel Pilon
      蒂龍·本斯金 Tyrone Benskin
      簡·惠勒 Jane Wheeler


◎標  簽 兒童 | 圣文生男孩 | 同性 | 同性戀 | 正太 | 宗教 | gay | 電影

◎簡  介

  這部電影根據真實事件改編,講述了加拿大的圣文森特天主教孤兒院,教會神父對十歲的凱文和其他孩子們進行性虐待的故事。這個事件浮出水面后警方開始進行調查,丑聞才得以公布于眾,而當地宗教和政治團體卻始終保持沉默。
Video
ID : 1
Format : AVC
Format/Info : Advanced Video Codec
Format profile : [email protected]
Format settings : CABAC / 4 Ref Frames
Format settings, CABAC : Yes
Format settings, Reference frames : 4 frames
Codec ID : V_MPEG4/ISO/AVC
Duration : 1 h 32 min
Bit rate mode : Constant
Bit rate : 5 366 kb/s
Nominal bit rate : 10 000 kb/s
Width : 1 440 pixels
Height : 1 080 pixels
Display aspect ratio : 4:3
Frame rate mode : Constant
Frame rate : 23.976 (24000/1001) FPS
Color space : YUV
Chroma subsampling : 4:2:0
Bit depth : 8 bits
Scan type : Progressive
Bits/(Pixel*Frame) : 0.144
Stream size : 3.47 GiB (96%)
Default : Yes
Forced : No
Color range : Limited
Color primaries : BT.709
Transfer characteristics : BT.709
Matrix coefficients : BT.709

Audio
ID : 2
Format : E-AC-3
Format/Info : Enhanced AC-3
Commercial name : Dolby Digital Plus
Codec ID : A_EAC3
Duration : 1 h 32 min
Bit rate mode : Constant
Bit rate : 224 kb/s
Channel(s) : 2 channels
Channel layout : L R
Sampling rate : 48.0 kHz
Frame rate : 31.250 FPS (1536 SPF)
Compression mode : Lossy
Stream size : 148 MiB (4%)
Language : English
Service kind : Complete Main
Default : Yes
Forced : No

Text
ID : 3
Format : UTF-8
Codec ID : S_TEXT/UTF8
Codec ID/Info : UTF-8 Plain Text
Duration : 1 h 32 min
Bit rate : 54 b/s
Count of elements : 1341
Stream size : 37.1 KiB (0%)
Title : SDH
Language : English
Default : No
Forced : No





1 個附件 售價 大小 下載 時間

The.Boys.Of.St.Vincent.1992.1080p.AMZN.WEBRip.DDP2.0.x264-TEPES.torrent 0 金幣 36.74K 280 次 1月前

#1樓
發帖時間:2020-01-24 18:56:20   |   回復數:3
tanchoohoon
武林盟主
感謝樓主的無私分享
1月前 #2樓
liyouchai
隱世仙人♂
謝謝樓主分享資源
1月前 #3樓
911degrees
隱世仙人♂
非常感謝,謝謝分享
28天前 #4樓
游客組