coor
一代宗師

[2012] [歐美] [劇情] [WEB-1080P] 寄宿男孩 The.Boarder.2012.1080p.AMZN.WEBRip.DDP2.0.x264-TEPES 6.06GB

-->

帖子完整標題:寄宿男孩 The.Boarder.2012.1080p.AMZN.WEBRip.DDP2.0.x264-TEPES 6.06GB




◎譯  名 寄宿男孩 / Troubled Child
◎片  名 The Boarder
◎年  代 2012
◎產  地 美國
◎類  別 劇情 / 驚悚
◎語  言 英語
◎上映日期 2012-07-25(美國)
◎IMDb評分 5.4/10 from 195 users
◎IMDb鏈接 https://www.imdb.com/title/tt1879066
◎豆瓣評分 0/10 from 0 users
◎豆瓣鏈接 https://movie.douban.com/subject/26794601/
◎片  長 100分鐘
◎導  演 Jolene Adams
◎編  劇 Jolene Adams / Jane Elizabeth Ryan
◎主  演 Andy Scott Harris
      Leslie Stevens
      Carlton Wilborn
      Patrick Nicolas
      McKenzie Clayton
      迪·沃倫斯 Dee Wallace
      Eric St. John
      Gerald Castillo
      Ray Chang
      Hallie Cowles
      Josh Dizon
      Briana Ferrari
      Phyllis Haverkamp
      Zac Heath
      Humphrey
      金·肯德爾 Kim Kendall
      Patricia Raven


◎簡  介

  安妮卡辭去在都市的教職工作,陪著身為牧師且充滿理想的先生移居鄉下,還有兩個可愛貼心的兒女相伴,擁有令人稱羨的恬淡生活;先生卻在此時說服她一同收養了一個無家可歸的11歲男孩卡爾,家裡開始出現各種「意外」,像是愛狗離奇死亡、或是安妮卡無故被反鎖在地下室,加之卡爾的情緒陰晴不定,讓安妮卡愈加不安…她將從這個男孩的過去挖掘出什麼樣的秘密?又能不能成功用愛陪他走過人生中最徬徨無助的這一段路呢?
Video
ID : 1
Format : AVC
Format/Info : Advanced Video Codec
Format profile : [email protected]
Format settings : CABAC / 4 Ref Frames
Format settings, CABAC : Yes
Format settings, Reference frames : 4 frames
Codec ID : V_MPEG4/ISO/AVC
Duration : 1 h 39 min
Bit rate mode : Constant
Bit rate : 8 535 kb/s
Nominal bit rate : 10 000 kb/s
Width : 1 920 pixels
Height : 1 040 pixels
Display aspect ratio : 1.85:1
Frame rate mode : Constant
Frame rate : 24.000 FPS
Color space : YUV
Chroma subsampling : 4:2:0
Bit depth : 8 bits
Scan type : Progressive
Bits/(Pixel*Frame) : 0.178
Stream size : 5.90 GiB (97%)
Default : Yes
Forced : No
Color range : Limited
Color primaries : BT.709
Transfer characteristics : BT.709
Matrix coefficients : BT.709

Audio
ID : 2
Format : E-AC-3
Format/Info : Enhanced AC-3
Commercial name : Dolby Digital Plus
Codec ID : A_EAC3
Duration : 1 h 39 min
Bit rate mode : Constant
Bit rate : 224 kb/s
Channel(s) : 2 channels
Channel layout : L R
Sampling rate : 48.0 kHz
Frame rate : 31.250 FPS (1536 SPF)
Compression mode : Lossy
Stream size : 159 MiB (3%)
Language : English
Service kind : Complete Main
Default : Yes
Forced : No

Text
ID : 3
Format : UTF-8
Codec ID : S_TEXT/UTF8
Codec ID/Info : UTF-8 Plain Text
Duration : 1 h 34 min
Bit rate : 49 b/s
Count of elements : 1255
Stream size : 34.4 KiB (0%)
Title : SDH
Language : English
Default : No
Forced : No





1 個附件 售價 大小 下載 時間

The.Boarder.2012.1080p.AMZN.WEBRip.DDP2.0.x264-TEPES.torrent 0 金幣 30.84K 266 次 2月前

#1樓
發帖時間:2020-01-24 18:58:19   |   回復數:3
tanchoohoon
武林盟主
感謝樓主的無私分享
2月前 #2樓
liyouchai
隱世仙人♂
謝謝樓主分享資源
2月前 #3樓
911degrees
隱世仙人♂
非常感謝,謝謝分享
2月前 #4樓
游客組