coor
一代宗師

[2015] [其他] [喜劇] [BD-1080P] 沒女神探 Love.Detective.2015.CHINESE.1080p.BluRay.x264.DTS-EPiC 7.47GB

-->

帖子完整標題:沒女神探 Love.Detective.2015.CHINESE.1080p.BluRay.x264.DTS-EPiC 7.47GB




◎譯  名 沒女神探 / Love Detective
◎片  名 沒女神探
◎年  代 2015
◎產  地 中國香港 / 中國大陸
◎類  別 喜劇
◎語  言 粵語
◎上映日期 2015-09-03(中國香港) / 2015-12-15(中國大陸)
◎IMDb評分 5.2/10 from 57 users
◎IMDb鏈接 https://www.imdb.com/title/tt5222806
◎豆瓣評分 4.2/10 from 2891 users
◎豆瓣鏈接 https://movie.douban.com/subject/26434823/
◎片  長 100分鐘
◎導  演 黃柏基 Jill Wong
◎編  劇 葉念琛 Patrick Kong
◎主  演 王菀之 Ivana Wong
      周柏豪 Pakho Chau
      陳嘉寶 Anjaylia Chan
      莊思敏 Jacquelin Chong
      連詩雅 Shiga Lin
      李靜儀 Heidi Lee
      林盛斌 Bob Lam
      鄭敬基 King-Kei Cheng
      鄭欣宜 Joyce Cheng
      蔣志光 Chi-Kwong Cheung


◎標  簽 香港 | 喜劇 | 香港電影 | 2015 | 王菀之 | 搞笑 | 周柏豪 | 葉念琛

◎簡  介

  阿寶(王菀之 飾)擁有著一份穩定的工作和一個交往多年的男友,兩人攜手步入婚禮的殿堂組成家庭仿佛已經是板上釘釘的事情了,在外人眼中,阿寶愛情事業雙豐收,堪稱人生贏家的典范。然而,令阿寶沒有想到的是,某一日,男友竟然提出了分手,這感情上的挫折讓阿寶陷入了崩潰之中,工作上亦連連失誤。
  就在這個節骨眼上,上司交給阿寶一個困難重重的任務,阿寶潛伏在魚龍混雜的模特圈,卻因此遇見了娘娘腔富二代成大志(周柏豪 飾)。種種誤會讓兩人三番五次的過招,隨著時間的推移竟然生出了別樣的感情,一個浪漫而又爆笑的愛情故事就此拉開了序幕。
Video
ID : 1
Format : AVC
Format/Info : Advanced Video Codec
Format profile : [email protected]
Format settings : CABAC / 4 Ref Frames
Format settings, CABAC : Yes
Format settings, Reference frames : 4 frames
Codec ID : V_MPEG4/ISO/AVC
Duration : 1 h 40 min
Bit rate : 9 138 kb/s
Width : 1 920 pixels
Height : 804 pixels
Display aspect ratio : 2.40:1
Frame rate mode : Constant
Frame rate : 24.000 FPS
Color space : YUV
Chroma subsampling : 4:2:0
Bit depth : 8 bits
Scan type : Progressive
Bits/(Pixel*Frame) : 0.247
Stream size : 6.41 GiB (86%)
Writing library : x264 core 146 r2538 121396c
Encoding settings : cabac=1 / ref=4 / deblock=1:-3:-3 / analyse=0x3:0x133 / me=umh / subme=11 / psy=1 / psy_rd=1.00:0.15 / mixed_ref=1 / me_range=32 / chroma_me=1 / trellis=2 / 8x8dct=1 / cqm=0 / deadzone=21,11 / fast_pskip=1 / chroma_qp_offset=-3 / threads=12 / lookahead_threads=2 / sliced_threads=0 / nr=0 / decimate=1 / interlaced=0 / bluray_compat=0 / constrained_intra=0 / bframes=8 / b_pyramid=2 / b_adapt=2 / b_bias=0 / direct=3 / weightb=1 / open_gop=0 / weightp=2 / keyint=230 / keyint_min=22 / scenecut=40 / intra_refresh=0 / rc_lookahead=200 / rc=crf / mbtree=0 / crf=16.5 / qcomp=0.60 / qpmin=0 / qpmax=40 / qpstep=4 / vbv_maxrate=30000 / vbv_bufsize=40000 / crf_max=0.0 / nal_hrd=none / filler=0 / ip_ratio=1.40 / pb_ratio=1.30 / aq=1:1.00
Language : Chinese
Default : Yes
Forced : No

Audio
ID : 2
Format : DTS
Format/Info : Digital Theater Systems
Codec ID : A_DTS
Duration : 1 h 40 min
Bit rate mode : Constant
Bit rate : 1 509 kb/s
Channel(s) : 6 channels
Channel layout : C L R Ls Rs LFE
Sampling rate : 48.0 kHz
Frame rate : 93.750 FPS (512 SPF)
Bit depth : 16 bits
Compression mode : Lossy
Stream size : 1.06 GiB (14%)
Language : Chinese
Default : Yes
Forced : No

Text
ID : 3
Format : UTF-8
Codec ID : S_TEXT/UTF8
Codec ID/Info : UTF-8 Plain Text
Duration : 1 h 37 min
Bit rate : 88 b/s
Count of elements : 1856
Stream size : 63.1 KiB (0%)
Language : English
Default : Yes
Forced : No

Menu
00:00:00.000 : en:00:00:00.000
00:05:46.458 : en:00:05:46.458
00:10:05.167 : en:00:10:05.167
00:17:28.708 : en:00:17:28.708
00:24:10.292 : en:00:24:10.292
00:29:36.083 : en:00:29:36.083
00:35:04.792 : en:00:35:04.792
00:39:26.083 : en:00:39:26.083
00:45:59.875 : en:00:45:59.875
00:53:29.125 : en:00:53:29.125
00:59:03.417 : en:00:59:03.417
01:02:50.083 : en:01:02:50.083
01:09:27.625 : en:01:09:27.625
01:14:20.833 : en:01:14:20.833
01:20:54.292 : en:01:20:54.292
01:26:07.083 : en:01:26:07.083
01:31:47.167 : en:01:31:47.167
01:38:15.667 : en:01:38:15.667





1 個附件 售價 大小 下載 時間

Love.Detective.2015.CHINESE.1080p.BluRay.x264.DTS-EPiC.torrent 0 金幣 37.87K 924 次 2月前

#1樓
發帖時間:2020-01-26 11:14:59   |   回復數:2
tanchoohoon
武林盟主
感謝樓主的無私分享
2月前 #2樓
911degrees
隱世仙人♂
非常感謝,謝謝分享
2月前 #3樓
游客組