coor
一代宗師

[2018] [日本] [劇情] [BD-1080P] 這里好無聊快來接我 Its.Boring.Here.Pick.Me.Up.2018.JAPANESE.1080p.BluRay.x264.DTS-iKiW 9.

-->

帖子完整標題:這里好無聊快來接我 Its.Boring.Here.Pick.Me.Up.2018.JAPANESE.1080p.BluRay.x264.DTS-iKiW 9.01GB




◎譯  名 這里好無聊,快來接我 / Side Job / 到這里迎接無聊
◎片  名 ここは退屈迎えに來て
◎年  代 2018
◎產  地 日本
◎類  別 劇情
◎語  言 日語
◎上映日期 2018-10-09(溫哥華電影節) / 2018-10-19(日本)
◎IMDb評分 5.5/10 from 24 users
◎IMDb鏈接 https://www.imdb.com/title/tt8185442
◎豆瓣評分 6.0/10 from 721 users
◎豆瓣鏈接 https://movie.douban.com/subject/27054594/
◎片  長 98分鐘
◎導  演 廣木隆一 Ryuichi Hiroki
◎編  劇 櫻井智也 Tomonari Sakurai / 山內麻里子 Mariko Yamauchi
◎主  演 橋本愛 Ai Hashimoto
      門脅麥 Mugi Kadowaki
      成田凌 Ryo Narita
      渡邊大知 Daichi Watanabe
      岸井雪乃 Yukino Kishii
      內田理央 Rio Uchida
      柳百合菜 Yurina Yanagi
      片山友希 Yuki Katayama
      槙田雄司 Makita Sports
      瀧內公美 Kumi Takiuchi


◎標  簽 日本 | 2018 | 青春 | 劇情 | 小說改編 | 映畫 | 成長 | 人生

◎簡  介

  <安曇春子下落不明>原作山內瑪麗子另一部知名小說<到這里迎接無聊>宣布映畫化,橋本愛主演,門脇麥&成田凌共演,廣木隆一導演作品。故事以日趨單一化,缺乏獨創性的社會背景展開,描寫當代年輕人尋找屬于自己生活空間的青春物語。
  目前電影已經拍攝完畢,今年秋季公映。
Video
ID : 1
Format : AVC
Format/Info : Advanced Video Codec
Format profile : [email protected]
Format settings : CABAC / 4 Ref Frames
Format settings, CABAC : Yes
Format settings, Reference frames : 4 frames
Codec ID : V_MPEG4/ISO/AVC
Duration : 1 h 37 min
Bit rate : 11.6 Mb/s
Width : 1 920 pixels
Height : 1 038 pixels
Display aspect ratio : 1.85:1
Frame rate mode : Constant
Frame rate : 23.976 (24000/1001) FPS
Color space : YUV
Chroma subsampling : 4:2:0
Bit depth : 8 bits
Scan type : Progressive
Bits/(Pixel*Frame) : 0.244
Stream size : 7.96 GiB (88%)
Writing library : x264 core 129 r2245+704+36 8e61944 tMod+MixAQ [[email protected]:2:0 X86_64]
Encoding settings : cabac=1 / ref=4 / deblock=1:-3:-3 / analyse=0x3:0x133 / me=umh / subme=11 / psy=1 / fade_compensate=0.00 / psy_rd=1.05:0.10 / mixed_ref=1 / me_range=64 / chroma_me=1 / trellis=2 / 8x8dct=1 / cqm=0 / deadzone=21,11 / fast_pskip=0 / chroma_qp_offset=-3 / threads=18 / lookahead_threads=3 / sliced_threads=0 / nr=0 / decimate=0 / interlaced=0 / bluray_compat=0 / constrained_intra=0 / fgo=0 / bframes=10 / b_pyramid=2 / b_adapt=2 / b_bias=0 / direct=3 / weightb=1 / open_gop=0 / weightp=2 / keyint=250 / keyint_min=23 / scenecut=40 / intra_refresh=0 / rc=2pass / mbtree=0 / bitrate=11650 / ratetol=1.0 / qcomp=0.70 / qpmin=0 / qpmax=69 / qpstep=4 / cplxblur=20.0 / qblur=0.5 / ip_ratio=1.40 / pb_ratio=1.30 / aq=1 / aq-strength=0.90 / aq-sensitivity=10.00 / aq-ifactor=1.00 / aq-pfactor=1.00 / aq-bfactor=1.00 / aq2=0
Language : Japanese
Default : Yes
Forced : No

Audio
ID : 2
Format : DTS
Format/Info : Digital Theater Systems
Codec ID : A_DTS
Duration : 1 h 37 min
Bit rate mode : Constant
Bit rate : 1 509 kb/s
Channel(s) : 6 channels
Channel layout : C L R Ls Rs LFE
Sampling rate : 48.0 kHz
Frame rate : 93.750 FPS (512 SPF)
Bit depth : 24 bits
Compression mode : Lossy
Stream size : 1.03 GiB (11%)
Language : Japanese
Default : Yes
Forced : No

Text #1
ID : 3
Format : UTF-8
Codec ID : S_TEXT/UTF8
Codec ID/Info : UTF-8 Plain Text
Duration : 1 h 33 min
Bit rate : 41 b/s
Count of elements : 1027
Stream size : 28.1 KiB (0%)
Language : English
Default : Yes
Forced : No

Text #2
ID : 4
Format : ASS
Codec ID : S_TEXT/ASS
Codec ID/Info : Advanced Sub Station Alpha
Duration : 1 h 37 min
Bit rate : 77 b/s
Count of elements : 1108
Compression mode : Lossless
Stream size : 55.2 KiB (0%)
Language : Chinese
Default : No
Forced : No





1 個附件 售價 大小 下載 時間

Its.Boring.Here.Pick.Me.Up.2018.JAPANESE.1080p.BluRay.x264.DTS-iKiW.torrent 0 金幣 45.59K 1113 次 1月前

#1樓
發帖時間:2020-01-26 11:16:57   |   回復數:2
tanchoohoon
武林盟主
感謝樓主的無私分享
1月前 #2樓
911degrees
隱世仙人♂
非常感謝,謝謝分享
28天前 #3樓
游客組