coor
一代宗師

[2014] [日本] [劇情] [BD-1080P] 真英雄 In.the.Hero.2014.JAPANESE.1080p.BluRay.x264-iKiW 9.21GB

-->

帖子完整標題:真英雄 In.the.Hero.2014.JAPANESE.1080p.BluRay.x264-iKiW 9.21GB




◎譯  名 真英雄 / In the Hero
◎片  名 イン?ザ?ヒーロー
◎年  代 2014
◎產  地 日本
◎類  別 劇情
◎語  言 日語
◎上映日期 2014-09-06(日本)
◎IMDb評分 6.9/10 from 63 users
◎IMDb鏈接 https://www.imdb.com/title/tt3472210
◎豆瓣評分 7.0/10 from 770 users
◎豆瓣鏈接 https://movie.douban.com/subject/25812731/
◎導  演 武正晴 Masaharu Take
◎編  劇 李鳳宇 Bong-Ou Lee / 水野敬也
◎主  演 唐澤壽明 Toshiaki Karasawa
      福士蒼汰 S?ta Fukushi
      黑谷友香 Tomoka Kurotani
      寺島進 Susumu Terajima
      草野イニ
      日向丈
      小出惠介 Keisuke Koide
      及川光博 Mitsuhiro Oikawa
      杉咲花 Hana Sugisaki
      イ?ジュニク
      加藤雅也 Masaya Kat?
      松方弘樹 Hiroki Matsukata
      和久井映見 Emi Wakui


◎標  簽 日本 | 日本電影 | 動作 | 2014 | 勵志 | 唐沢壽明 | 劇情 | 唐澤壽明

◎簡  介

  擁有25年表演經驗的本城涉(唐澤壽明 飾)是一名資深特技演員,他以社長身份經營特技公司HAC,與多少年親密無間的好兄弟們在攝像機和舞臺前揮灑汗水,奮力拼搏。本城對電影有著常人難以比擬的熱愛,卻因此疏忽了對妻子凜子(和久井映見 飾)和女兒(杉咲花 飾)的關照。他好不容易得到一個正式演員的角色,結果卻希望落空,而與之配戲的偶像一之瀨良(福士蒼汰 飾)則如日中天,形成鮮明的對比。一之瀨風頭正勁,高傲自我,口口聲聲要站在奧斯卡的頒獎舞臺之上,卻對電影的幕后制作漠不關心。隨著相處的加深,一之瀨漸漸對本城抱以敬重,他也開始嘗試著用心磨練自己的演技。
  與此同時,某好萊塢大制作動作電影在日本開拍,本城意外獲得了出演一場極其危險的重頭戲的機會……

◎獲獎情況

  第38屆日本電影學院獎(2015)
  最佳新人 福士蒼汰
Video
ID : 1
Format : AVC
Format/Info : Advanced Video Codec
Format profile : [email protected]
Format settings : CABAC / 4 Ref Frames
Format settings, CABAC : Yes
Format settings, Reference frames : 4 frames
Codec ID : V_MPEG4/ISO/AVC
Duration : 2 h 3 min
Bit rate : 10 000 kb/s
Width : 1 920 pixels
Height : 1 036 pixels
Display aspect ratio : 1.85:1
Frame rate mode : Constant
Frame rate : 23.976 (24000/1001) FPS
Color space : YUV
Chroma subsampling : 4:2:0
Bit depth : 8 bits
Scan type : Progressive
Bits/(Pixel*Frame) : 0.210
Stream size : 8.65 GiB (94%)
Writing library : x264 core 129 r2245+704+36 8e61944 tMod+MixAQ [[email protected]:2:0 X86_64]
Encoding settings : cabac=1 / ref=4 / deblock=1:-3:-3 / analyse=0x3:0x133 / me=umh / subme=11 / psy=1 / fade_compensate=0.00 / psy_rd=1.05:0.10 / mixed_ref=1 / me_range=64 / chroma_me=1 / trellis=2 / 8x8dct=1 / cqm=0 / deadzone=21,11 / fast_pskip=0 / chroma_qp_offset=-3 / threads=18 / lookahead_threads=3 / sliced_threads=0 / nr=0 / decimate=0 / interlaced=0 / bluray_compat=0 / constrained_intra=0 / fgo=0 / bframes=10 / b_pyramid=2 / b_adapt=2 / b_bias=0 / direct=3 / weightb=1 / open_gop=0 / weightp=2 / keyint=250 / keyint_min=23 / scenecut=40 / intra_refresh=0 / rc_lookahead=80 / rc=2pass / mbtree=1 / bitrate=10000 / ratetol=1.0 / qcomp=0.70 / qpmin=0 / qpmax=69 / qpstep=4 / cplxblur=20.0 / qblur=0.5 / ip_ratio=1.40 / aq=3 / aq-strength=0.85 / aq-sensitivity=10.00 / aq-ifactor=1.00 / aq-pfactor=1.00 / aq-bfactor=1.00 / aq2=0
Language : Japanese
Default : Yes
Forced : No

Audio
ID : 2
Format : AC-3
Format/Info : Audio Coding 3
Commercial name : Dolby Digital
Codec ID : A_AC3
Duration : 2 h 3 min
Bit rate mode : Constant
Bit rate : 640 kb/s
Channel(s) : 6 channels
Channel layout : L R C LFE Ls Rs
Sampling rate : 48.0 kHz
Frame rate : 31.250 FPS (1536 SPF)
Bit depth : 16 bits
Compression mode : Lossy
Stream size : 567 MiB (6%)
Language : Japanese
Service kind : Complete Main
Default : Yes
Forced : No

Text #1
ID : 3
Format : UTF-8
Codec ID : S_TEXT/UTF8
Codec ID/Info : UTF-8 Plain Text
Duration : 2 h 2 min
Bit rate : 37 b/s
Count of elements : 1168
Stream size : 33.8 KiB (0%)
Language : English
Default : Yes
Forced : No

Text #2
ID : 4
Format : ASS
Codec ID : S_TEXT/ASS
Codec ID/Info : Advanced Sub Station Alpha
Duration : 2 h 3 min
Bit rate : 69 b/s
Count of elements : 1598
Compression mode : Lossless
Stream size : 62.9 KiB (0%)
Title : Simplified
Language : Chinese
Default : No
Forced : No

Text #3
ID : 5
Format : ASS
Codec ID : S_TEXT/ASS
Codec ID/Info : Advanced Sub Station Alpha
Duration : 2 h 3 min
Bit rate : 69 b/s
Count of elements : 1598
Compression mode : Lossless
Stream size : 62.9 KiB (0%)
Title : Traditional
Language : Chinese
Default : No
Forced : No

Menu
00:00:00.000 : en:00:00:00.000
00:07:33.453 : en:00:07:33.453
00:15:09.617 : en:00:15:09.617
00:23:10.138 : en:00:23:10.138
00:30:32.872 : en:00:30:32.872
00:38:21.465 : en:00:38:21.465
00:45:34.732 : en:00:45:34.732
00:52:25.475 : en:00:52:25.475
01:03:05.281 : en:01:03:05.281
01:11:37.793 : en:01:11:37.793
01:21:19.666 : en:01:21:19.666
01:28:36.352 : en:01:28:36.352
01:34:46.180 : en:01:34:46.180
01:42:01.240 : en:01:42:01.240
01:49:37.195 : en:01:49:37.195
01:56:48.626 : en:01:56:48.626
02:03:49.422 : en:02:03:49.422





1 個附件 售價 大小 下載 時間

In.the.Hero.2014.JAPANESE.1080p.BluRay.x264-iKiW.torrent 0 金幣 46.59K 1141 次 2月前

#1樓
發帖時間:2020-01-26 11:18:58   |   回復數:2
tanchoohoon
武林盟主
感謝樓主的無私分享
2月前 #2樓
911degrees
隱世仙人♂
非常感謝,謝謝分享
2月前 #3樓
游客組